Поліцейський із Беверлі-Хіллз. Трилогія / Beverly Hills Cop. Trilogy (1984, 1987, 1994) 1080p H.265 Ukr/Eng | Sub Eng

Нові коментарі

Нова тема   Відповісти
Автор Повідомлення
Kurya 
Свій


З нами з: 08.05.08
Востаннє: 27.01.21
Повідомлень: 73

2019-06-05 10:08  
Поліцейський із Беверлі-Хіллз. Трилогія / Beverly Hills Cop. Trilogy (1984, 1987, 1994) 1080p H.265 Ukr/Eng | Sub Eng

Поліцейський із Беверлі-Хіллз. Трилогія / Beverly Hills Cop. Trilogy (1984, 1987, 1994) 1080p H.265 Ukr/Eng | Sub Eng
Поліцейський із Беверлі-Хіллз / Beverly Hills Cop (1984) 1080p H.265 Ukr/Eng | Sub Eng
Поліцейський із Беверлі-Хіллз / Beverly Hills Cop (1984) 1080p H.265 Ukr/Eng | Sub Eng

Поліцейський із Беверлі-Хіллз. Трилогія / Beverly Hills Cop. Trilogy (1984, 1987, 1994) 1080p H.265 Ukr/Eng | Sub Eng

Жанр: екшн, комедія, кримінальний, драма
Країна: США



Кінокомпанія: Paramount Pictures, Eddie Murphy Productions
Режисер: Мартін Брест / Martin Brest
Актори: Едді Мерфі / Eddie Murphy, Джадж Райнголд / Judge Reinhold, Джон Ештон / John Ashton, Ліза Айлбакер / Lisa Eilbacher, Ронні Кокс / Ronny Cox, Стівен Беркоф / Steven Berkoff, Джеймс Руссо / James Russo та інші

Сюжет:
Аксель Фолі - чорношкірий поліцейський зі світлою головою та великою пелькою з робітничого міста Детройт. Він шукає вбивцю свого старого шкільного друга і пошуки доводять його до Беверлі-Хіллз. Але методи роботи простого поліцейського не дуже влаштовують поліцію у білих рукавичках з міста янголів. Щоб уникнути розгрому великого міста, за ним поставили постійно слідкувати двох колег.


Тривалість: 01:45:04
Якість:
Відео:
кодек: H.265/HEVC
розмір кадру: 1920х1080
бітрейт: 12.0 Мб/с

Аудіо # 1:
мова: українська
переклад: багатоголосий закадровий
кодек: 2.0
бітрейт: 192 кб/с

Аудіо # 2:
мова: англійська
переклад: оригінал
кодек: 5.1
бітрейт: 448 кб/с

Джерело озвучення:


Субтитри:
мова: англійська
тип: пререндерні
формат: *.pgs
Info
General
Unique ID : 30707344994880841814507794118758523111 (0x171A04FF8376AEE66789FAF05F3A60E7)
Complete name : file:///data/Beverly Hills Cop. Trilogy (1984_1987_1994) 1080p [UKR] [Hurtom]/Beverly Hills Cop (1984) 1080p [Ukr.Eng Sub.Eng] [Hurtom].
Format :
Format version : Version 4
File size : 9.34 GiB
Duration : 1 h 45 min
Overall bit rate : 12.7 Mb/s
Movie name : Поліцейський із Беверлі Хіллз [Beverly Hills Cop] (1984)
Encoded date : UTC 2019-06-02 18:35:04
Writing application : v31.0.0 ('Dolores In A Shoestand') 64-bit
Writing library : libebml v1.3.6 + v1.4.9 / Lavf58.20.100
Cover : Yes
Attachments : Cover.jpg

Video
ID : 1
Format : HEVC
Format/Info : High Efficiency Video Coding
Format profile : [email protected]@Main
Codec ID : V_MPEGH/ISO/HEVC
Duration : 1 h 45 min
Bit rate : 12.0 Mb/s
Width : 1 920 pixels
Height : 1 080 pixels
Display aspect ratio : 16:9
Frame rate mode : Constant
Frame rate : 23.976 (24000/1001) FPS
Color space : YUV
Chroma subsampling : 4:2:0
Bit depth : 8 bits
Bits/(Pixel*Frame) : 0.241
Stream size : 8.79 GiB (94%)
Writing library : x265 2.9:[Linux][GCC 8.2.0][64 bit] 8bit+10bit+12bit
Encoding settings : cpuid=1111039 / frame-threads=2 / wpp / no-pmode / no-pme / no-psnr / no-ssim / log-level=2 / input-csp=1 / input-res=1920x1080 / interlace=0 / total-frames=0 / level-idc=0 / high-tier=1 / uhd-bd=0 / ref=3 / no-allow-non-conformance / no-repeat-headers / annexb / no-aud / no-hrd / info / hash=0 / no-temporal-layers / open-gop / min-keyint=24 / keyint=240 / gop-lookahead=0 / bframes=4 / b-adapt=2 / b-pyramid / bframe-bias=0 / rc-lookahead=20 / lookahead-slices=6 / scenecut=40 / radl=0 / no-intra-refresh / ctu=64 / min-cu-size=8 / no-rect / no-amp / max-tu-size=32 / tu-inter-depth=1 / tu-intra-depth=1 / limit-tu=0 / rdoq-level=0 / dynamic-rd=0,00 / no-ssim-rd / signhide / no-tskip / nr-intra=0 / nr-inter=0 / no-constrained-intra / strong-intra-smoothing / max-merge=2 / limit-refs=3 / no-limit-modes / me=3 / subme=4 / merange=57 / temporal-mvp / weightp / no-weightb / no-analyze-src-pics / deblock=0:0 / no-sao / no-sao-non-deblock / rd=3 / no-early-skip / no-rskip / no-fast-intra / no-tskip-fast / no-cu-lossless / no-b-intra / no-splitrd-skip / rdpenalty=0 / psy-rd=4,00 / psy-rdoq=0,00 / no-rd-refine / no-lossless / cbqpoffs=0 / crqpoffs=0 / rc=crf / crf=20,0 / qcomp=0,60 / qpstep=1 / stats-write=0 / stats-read=0 / ipratio=1,10 / pbratio=1,00 / aq-mode=0 / aq-strength=0,00 / no-cutree / zone-count=0 / no-strict-cbr / qg-size=64 / rc-grain / qpmax=69 / qpmin=0 / const-vbv / sar=1 / overscan=0 / videoformat=5 / range=0 / colorprim=1 / transfer=1 / colormatrix=1 / chromaloc=0 / display-window=0 / max-cll=0,0 / min-luma=0 / max-luma=255 / log2-max-poc-lsb=8 / vui-timing-info / vui-hrd-info / slices=1 / no-opt-qp-pps / no-opt-ref-list-length-pps / no-multi-pass-opt-rps / scenecut-bias=0,05 / no-opt-cu-delta-qp / no-aq-motion / no-hdr / no-hdr-opt / no-dhdr10-opt / no-idr-recovery-sei / analysis-reuse-level=5 / scale-factor=0 / refine-intra=0 / refine-inter=0 / refine-mv=0 / no-limit-sao / ctu-info=0 / no-lowpass-dct / refine-mv-type=0 / copy-pic=1 / max-ausize-factor=1,0 / no-dynamic-refine / no-single-sei
Default : Yes
Forced : No
Color range : Limited
Color primaries : BT.709
Transfer characteristics : BT.709
Matrix coefficients : BT.709

Audio #1
ID : 2
Format : AC-3
Format/Info : Audio Coding 3
Commercial name : Dolby Digital
Codec ID : A_AC3
Duration : 1 h 45 min
Bit rate mode : Constant
Bit rate : 192 kb/s
Channel(s) : 2 channels
Channel layout : L R
Sampling rate : 48.0 kHz
Frame rate : 31.250 FPS (1536 SPF)
Bit depth : 16 bits
Compression mode : Lossy
Delay relative to video : -5 ms
Stream size : 144 MiB (2%)
Title : MVO [ICTV / Inter / K1] 2.0/192 kbps
Language : Ukrainian
Service kind : Complete Main
Default : Yes
Forced : No

Audio #2
ID : 3
Format : AC-3
Format/Info : Audio Coding 3
Commercial name : Dolby Digital
Codec ID : A_AC3
Duration : 1 h 45 min
Bit rate mode : Constant
Bit rate : 448 kb/s
Channel(s) : 6 channels
Channel layout : L R C LFE Ls Rs
Sampling rate : 48.0 kHz
Frame rate : 31.250 FPS (1536 SPF)
Bit depth : 16 bits
Compression mode : Lossy
Delay relative to video : -5 ms
Stream size : 337 MiB (4%)
Title : Original 5.1/448 kbps
Language : English
Service kind : Complete Main
Default : No
Forced : No

Text #1
ID : 4
Format : PGS
Codec ID : S_HDMV/PGS
Codec ID/Info : Picture based subtitle format used on BDs/HD-DVDs
Duration : 1 h 38 min
Bit rate : 60.8 kb/s
Count of elements : 2642
Stream size : 42.8 MiB (0%)
Title : Original
Language : English
Default : No
Forced : No

Text #2
ID : 5
Format : PGS
Codec ID : S_HDMV/PGS
Codec ID/Info : Picture based subtitle format used on BDs/HD-DVDs
Duration : 1 h 40 min
Bit rate : 62.4 kb/s
Count of elements : 2816
Stream size : 44.7 MiB (0%)
Title : Original (SDH)
Language : English
Default : No
Forced : No
Скріншоти
Поліцейський із Беверлі-Хіллз 2 / Beverly Hills Cop II (1987) 1080p H.265 Ukr/Eng | Sub Eng
Поліцейський із Беверлі-Хіллз 2 / Beverly Hills Cop II (1987) 1080p H.265 Ukr/Eng | Sub Eng

Поліцейський із Беверлі-Хіллз. Трилогія / Beverly Hills Cop. Trilogy (1984, 1987, 1994) 1080p H.265 Ukr/Eng | Sub Eng

Жанр: екшн, комедія, кримінальний, драма
Країна: США



Кінокомпанія: Paramount Pictures, Don Simpson/Jerry Bruckheimer Films, Eddie Murphy Productions
Режисер: Тоні Скот / Tony Scott
Актори: Едді Мерфі / Eddie Murphy, Джадж Райнголд / Judge Reinhold, Джон Ештон / John Ashton, Юрґен Прокнов / Jürgen Prochnow, Ронні Кокс / Ronny Cox, Бріджит Нільсен / Brigitte Nielsen, Ален Ґарфілд / Allen Garfield та інші

Сюжет:
Розступіться, він повернувся - і вляпався туди, куди не слід. Він працює під прикриттям у заможній та ексклюзивній Каліфорнії. За допомогою улюбленої зброї - своєї нестримної пельки, що знищує не менше ворогів аніж автоматична зброя, він переслідує банди міжнародних торговців зброєю.


Тривалість: 01:42:58
Якість:
Відео:
кодек: H.265/HEVC
розмір кадру: 1920х818 (2.35/1)
бітрейт: 15.0 Мб/с

Аудіо # 1:
мова: українська
переклад: багатоголосий закадровий
кодек: 2.0
бітрейт: 192 кб/с

Аудіо # 2:
мова: англійська
переклад: оригінал
кодек: 5.1
бітрейт: 448 кб/с

Джерело озвучення:


Субтитри:
мова: англійська
тип: пререндерні
формат: *.pgs
Info
General
Unique ID : 68809073032394585831499478596229301780 (0x33C4253A3C6E2BC6D60BE37630648614)
Complete name : file:///data/Beverly Hills Cop. Trilogy (1984_1987_1994) 1080p [UKR] [Hurtom]/Beverly Hills Cop II (1987) 1080p [Ukr.Eng Sub.Eng] [Hurtom].
Format :
Format version : Version 4
File size : 11.3 GiB
Duration : 1 h 42 min
Overall bit rate : 15.7 Mb/s
Movie name : Поліцейський з Беверлі-Хіллз 2 [Beverly Hills Cop II] (1987)
Encoded date : UTC 2019-06-02 05:00:49
Writing application : v31.0.0 ('Dolores In A Shoestand') 64-bit
Writing library : libebml v1.3.6 + v1.4.9 / Lavf58.20.100

Video
ID : 1
Format : HEVC
Format/Info : High Efficiency Video Coding
Format profile : [email protected]@Main
Codec ID : V_MPEGH/ISO/HEVC
Duration : 1 h 42 min
Bit rate : 15.0 Mb/s
Width : 1 920 pixels
Height : 818 pixels
Display aspect ratio : 2.35:1
Frame rate mode : Constant
Frame rate : 23.976 (24000/1001) FPS
Color space : YUV
Chroma subsampling : 4:2:0
Bit depth : 8 bits
Bits/(Pixel*Frame) : 0.398
Stream size : 10.8 GiB (95%)
Writing library : x265 2.9:[Linux][GCC 8.2.0][64 bit] 8bit+10bit+12bit
Encoding settings : cpuid=1111039 / frame-threads=2 / wpp / no-pmode / no-pme / no-psnr / no-ssim / log-level=2 / input-csp=1 / input-res=1920x818 / interlace=0 / total-frames=0 / level-idc=0 / high-tier=1 / uhd-bd=0 / ref=3 / no-allow-non-conformance / no-repeat-headers / annexb / no-aud / no-hrd / info / hash=0 / no-temporal-layers / open-gop / min-keyint=24 / keyint=240 / gop-lookahead=0 / bframes=4 / b-adapt=2 / b-pyramid / bframe-bias=0 / rc-lookahead=20 / lookahead-slices=5 / scenecut=40 / radl=0 / no-intra-refresh / ctu=64 / min-cu-size=8 / no-rect / no-amp / max-tu-size=32 / tu-inter-depth=1 / tu-intra-depth=1 / limit-tu=0 / rdoq-level=0 / dynamic-rd=0,00 / no-ssim-rd / signhide / no-tskip / nr-intra=0 / nr-inter=0 / no-constrained-intra / strong-intra-smoothing / max-merge=2 / limit-refs=3 / no-limit-modes / me=3 / subme=4 / merange=57 / temporal-mvp / weightp / no-weightb / no-analyze-src-pics / deblock=0:0 / no-sao / no-sao-non-deblock / rd=3 / no-early-skip / no-rskip / no-fast-intra / no-tskip-fast / no-cu-lossless / no-b-intra / no-splitrd-skip / rdpenalty=0 / psy-rd=4,00 / psy-rdoq=0,00 / no-rd-refine / no-lossless / cbqpoffs=0 / crqpoffs=0 / rc=crf / crf=20,0 / qcomp=0,60 / qpstep=1 / stats-write=0 / stats-read=0 / ipratio=1,10 / pbratio=1,00 / aq-mode=0 / aq-strength=0,00 / no-cutree / zone-count=0 / no-strict-cbr / qg-size=64 / rc-grain / qpmax=69 / qpmin=0 / const-vbv / sar=1 / overscan=0 / videoformat=5 / range=0 / colorprim=1 / transfer=1 / colormatrix=1 / chromaloc=0 / display-window=0 / max-cll=0,0 / min-luma=0 / max-luma=255 / log2-max-poc-lsb=8 / vui-timing-info / vui-hrd-info / slices=1 / no-opt-qp-pps / no-opt-ref-list-length-pps / no-multi-pass-opt-rps / scenecut-bias=0,05 / no-opt-cu-delta-qp / no-aq-motion / no-hdr / no-hdr-opt / no-dhdr10-opt / no-idr-recovery-sei / analysis-reuse-level=5 / scale-factor=0 / refine-intra=0 / refine-inter=0 / refine-mv=0 / no-limit-sao / ctu-info=0 / no-lowpass-dct / refine-mv-type=0 / copy-pic=1 / max-ausize-factor=1,0 / no-dynamic-refine / no-single-sei
Default : Yes
Forced : Yes
Color range : Limited
Color primaries : BT.709
Transfer characteristics : BT.709
Matrix coefficients : BT.709

Audio #1
ID : 2
Format : AC-3
Format/Info : Audio Coding 3
Commercial name : Dolby Digital
Codec ID : A_AC3
Duration : 1 h 42 min
Bit rate mode : Constant
Bit rate : 192 kb/s
Channel(s) : 2 channels
Channel layout : L R
Sampling rate : 48.0 kHz
Frame rate : 31.250 FPS (1536 SPF)
Bit depth : 16 bits
Compression mode : Lossy
Delay relative to video : -5 ms
Stream size : 141 MiB (1%)
Title : MVO [ICTV / Inter / K1] 2.0/192 kbps
Language : Ukrainian
Service kind : Complete Main
Default : Yes
Forced : No

Audio #2
ID : 3
Format : AC-3
Format/Info : Audio Coding 3
Commercial name : Dolby Digital
Codec ID : A_AC3
Duration : 1 h 42 min
Bit rate mode : Constant
Bit rate : 448 kb/s
Channel(s) : 6 channels
Channel layout : L R C LFE Ls Rs
Sampling rate : 48.0 kHz
Frame rate : 31.250 FPS (1536 SPF)
Bit depth : 16 bits
Compression mode : Lossy
Delay relative to video : 22 ms
Stream size : 330 MiB (3%)
Title : Original 5.1/448 kbps
Language : English
Service kind : Complete Main
Default : No
Forced : No

Text
ID : 4
Format : PGS
Codec ID : S_HDMV/PGS
Codec ID/Info : Picture based subtitle format used on BDs/HD-DVDs
Duration : 1 h 42 min
Bit rate : 66.2 kb/s
Count of elements : 2816
Stream size : 48.4 MiB (0%)
Title : Original SDH
Language : English
Default : No
Forced : No
Скріншоти
Поліцейський із Беверлі-Хіллз 3 / Beverly Hills Cop III (1994) 1080p H.265 Ukr/Eng | Sub Eng
Поліцейський із Беверлі-Хіллз 3 / Beverly Hills Cop III (1994) 1080p H.265 Ukr/Eng | Sub Eng

Поліцейський із Беверлі-Хіллз. Трилогія / Beverly Hills Cop. Trilogy (1984, 1987, 1994) 1080p H.265 Ukr/Eng | Sub Eng

Жанр: екшн, комедія, кримінальний, драма
Країна: США



Кінокомпанія: Paramount Pictures, Eddie Murphy Productions
Режисер: Джон Лендіс / John Landis
Актори: Едді Мерфі / Eddie Murphy, Джадж Райнголд / Judge Reinhold, Гектор Елісондо / Hector Elizondo, Джон Саксон / John Saxon, Тереза Рендл / Theresa Randle, Бронсон Пінчот / Bronson Pinchot, Тімоті Каргарт / Timothy Carhart та інші

Сюжет:
Після перерви в сім років поліцейський з Детройта Аксель Фоулі знову вимушений побувати у своїх друзів в Беверлі-Хіллз. Його приводять туди пошуки вбивці улюбленого шефа.


Тривалість: 01:44:13
Якість:
Відео:
кодек: H.265/HEVC
розмір кадру: 1916х1080
бітрейт: 8708 кб/с

Аудіо # 1:
мова: українська
переклад: багатоголосий закадровий
кодек: 2.0
бітрейт: 192 кб/с

Аудіо # 2:
мова: англійська
переклад: оригінал
кодек: 5.1
бітрейт: 448 кб/с

Джерело озвучення:


Субтитри:
мова: англійська
тип: м'які
формат: *.srt
Info
General
Unique ID : 210622882452250126224434120028335758138 (0x9E747DDB62789A67B0AF9C890315DB3A)
Complete name : file:///data/Beverly Hills Cop. Trilogy (1984_1987_1994) 1080p [UKR] [Hurtom]/Beverly Hills Cop III (1994) 1080p [Ukr.Eng Sub.Eng] [Hurtom].
Format :
Format version : Version 4
File size : 6.81 GiB
Duration : 1 h 44 min
Overall bit rate : 9 350 kb/s
Movie name : Поліцейський із Беверлі-Хіллз 3 [Beverly Hills Cop III] (1994)
Encoded date : UTC 2019-06-05 07:12:10
Writing application : v31.0.0 ('Dolores In A Shoestand') 64-bit
Writing library : libebml v1.3.6 + v1.4.9 / Lavf58.20.100

Video
ID : 1
Format : HEVC
Format/Info : High Efficiency Video Coding
Format profile : [email protected]@Main
Codec ID : V_MPEGH/ISO/HEVC
Duration : 1 h 44 min
Bit rate : 8 708 kb/s
Width : 1 916 pixels
Height : 1 080 pixels
Display aspect ratio : 16:9
Frame rate mode : Constant
Frame rate : 23.976 (24000/1001) FPS
Color space : YUV
Chroma subsampling : 4:2:0
Bit depth : 8 bits
Bits/(Pixel*Frame) : 0.176
Stream size : 6.34 GiB (93%)
Writing library : x265 2.9:[Linux][GCC 8.2.0][64 bit] 8bit+10bit+12bit
Encoding settings : cpuid=1111039 / frame-threads=2 / wpp / no-pmode / no-pme / no-psnr / no-ssim / log-level=2 / input-csp=1 / input-res=1916x1080 / interlace=0 / total-frames=0 / level-idc=0 / high-tier=1 / uhd-bd=0 / ref=3 / no-allow-non-conformance / no-repeat-headers / annexb / no-aud / no-hrd / info / hash=0 / no-temporal-layers / open-gop / min-keyint=24 / keyint=240 / gop-lookahead=0 / bframes=4 / b-adapt=2 / b-pyramid / bframe-bias=0 / rc-lookahead=20 / lookahead-slices=6 / scenecut=40 / radl=0 / no-intra-refresh / ctu=64 / min-cu-size=8 / no-rect / no-amp / max-tu-size=32 / tu-inter-depth=1 / tu-intra-depth=1 / limit-tu=0 / rdoq-level=0 / dynamic-rd=0,00 / no-ssim-rd / signhide / no-tskip / nr-intra=0 / nr-inter=0 / no-constrained-intra / strong-intra-smoothing / max-merge=2 / limit-refs=3 / no-limit-modes / me=3 / subme=4 / merange=57 / temporal-mvp / weightp / no-weightb / no-analyze-src-pics / deblock=0:0 / no-sao / no-sao-non-deblock / rd=3 / no-early-skip / no-rskip / no-fast-intra / no-tskip-fast / no-cu-lossless / no-b-intra / no-splitrd-skip / rdpenalty=0 / psy-rd=4,00 / psy-rdoq=0,00 / no-rd-refine / no-lossless / cbqpoffs=0 / crqpoffs=0 / rc=crf / crf=20,0 / qcomp=0,60 / qpstep=1 / stats-write=0 / stats-read=0 / ipratio=1,10 / pbratio=1,00 / aq-mode=0 / aq-strength=0,00 / no-cutree / zone-count=0 / no-strict-cbr / qg-size=64 / rc-grain / qpmax=69 / qpmin=0 / const-vbv / sar=1 / overscan=0 / videoformat=5 / range=0 / colorprim=1 / transfer=1 / colormatrix=1 / chromaloc=0 / display-window=0 / max-cll=0,0 / min-luma=0 / max-luma=255 / log2-max-poc-lsb=8 / vui-timing-info / vui-hrd-info / slices=1 / no-opt-qp-pps / no-opt-ref-list-length-pps / no-multi-pass-opt-rps / scenecut-bias=0,05 / no-opt-cu-delta-qp / no-aq-motion / no-hdr / no-hdr-opt / no-dhdr10-opt / no-idr-recovery-sei / analysis-reuse-level=5 / scale-factor=0 / refine-intra=0 / refine-inter=0 / refine-mv=0 / no-limit-sao / ctu-info=0 / no-lowpass-dct / refine-mv-type=0 / copy-pic=1 / max-ausize-factor=1,0 / no-dynamic-refine / no-single-sei
Default : Yes
Forced : No
Color range : Limited
Color primaries : BT.709
Transfer characteristics : BT.709
Matrix coefficients : BT.709

Audio #1
ID : 2
Format : AC-3
Format/Info : Audio Coding 3
Commercial name : Dolby Digital
Codec ID : A_AC3
Duration : 1 h 44 min
Bit rate mode : Constant
Bit rate : 192 kb/s
Channel(s) : 2 channels
Channel layout : L R
Sampling rate : 48.0 kHz
Frame rate : 31.250 FPS (1536 SPF)
Bit depth : 16 bits
Compression mode : Lossy
Delay relative to video : -5 ms
Stream size : 143 MiB (2%)
Title : MVO [ICTV / Inter / K1] 2.0/192 kbps
Language : Ukrainian
Service kind : Complete Main
Default : Yes
Forced : No

Audio #2
ID : 3
Format : AC-3
Format/Info : Audio Coding 3
Commercial name : Dolby Digital
Codec ID : A_AC3
Duration : 1 h 44 min
Bit rate mode : Constant
Bit rate : 448 kb/s
Channel(s) : 6 channels
Channel layout : L R C LFE Ls Rs
Sampling rate : 48.0 kHz
Frame rate : 31.250 FPS (1536 SPF)
Bit depth : 16 bits
Compression mode : Lossy
Delay relative to video : -5 ms
Stream size : 334 MiB (5%)
Title : Original AC5.1/448 kbps
Language : English
Service kind : Complete Main
Default : No
Forced : No

Text
ID : 4
Format : UTF-8
Codec ID : S_TEXT/UTF8
Codec ID/Info : UTF-8 Plain Text
Duration : 1 h 39 min
Bit rate : 53 b/s
Count of elements : 974
Stream size : 38.9 KiB (0%)
Title : Original (SRT)
Language : English
Default : No
Forced : No
Скріншоти
Увага! Перед завантаженням переконайтесь, що ваш пристрій відтворення (та/або ПЗ) підтримує H.265 (HEVC)

Джерело:
Особиста оцінка: 10 - без зайвих вагань рекомендую всім!
Порівняння якості відео Remux та на прикладі другої частини


Срібний реліз (на рейтинг впливає 50% завантаженого)
 Трекер:    Зареєстрований   

Завантажити / скачати фільм українською



відео для новачків



 Зареєстрований:   2019-06-05 10:08
 Розмір:   27.44 GB 
 Оцінка фільму:   10/10 (Голосів: 8)
   
Kurya 
Свій


З нами з: 08.05.08
Востаннє: 27.01.21
Повідомлень: 73

2019-06-05 10:14  
Маленький коментар. Це мій перший ріп з ремукса та перший реліз на Толоці. Тож, якщо є якась конструктивна критика, пишіть. Я робив цей реліз у першу чергу для себе у колекцію, тож перевагою для мене була якість відео. Що у мене з того вийшло можна подивитись у порівнянні. У другій частині обрізані чорні рядки згори та знизу, бо я не бачу у них сенсу. Навряд вони були на оригінальній кіноплівці.Тим паче, наприклад, при перегляді на сучасних смартфонах вони будуть лише заважати. У третій частині субтитри не з ремуксу, бо у ремукс хтось заріпав німецькі субтитри під виглядом англійських. Тож довелось брати звичайні srt. Українські доріжки взяті з трилогії у SD, там краща яість, бо у ремуксі їх підсилили і повилазили усі дефекти.
-Star-Lord- 
VIP


З нами з: 09.08.18
Востаннє: 28.01.21
Повідомлень: 2319

2019-06-05 10:31  
Для кращої якості краще використовувати такі параметри:
ref=5 / me=3 / subme=7 / tu-inter-depth=4 / tu-intra-depth=4 / rd=6 / rdoq-level=2 / psy-rd=2.00 / psy-rdoq=1.00 - 2.00 / rect / amp
І краще використовувати 10 біт, а не 8, але це вже на смак.

Але з такими параметрам час кодування сильно збільшиться.

Додано через 1 хвилину 20 секунд:

Kurya написано:
У другій частині обрізані чорні рядки згори та знизу, бо я не бачу у них сенсу.

Правильно зробили!
Kurya написано:
Тож довелось брати звичайні srt.

Правильніше тільки їх і використовувати, бо вони мають максимальну підтримку програвачами.

Додано через 2 хвилини 58 секунд:

А, забув про цей параметр - no-strong-intra-smoothing

MakRA 
VIP


З нами з: 10.11.18
Востаннє: 28.01.21
Повідомлень: 1168

2019-06-05 10:39  
Kurya
Вітаю з першим релізом! Happy

Kurya 
Свій


З нами з: 08.05.08
Востаннє: 27.01.21
Повідомлень: 73

2019-06-05 10:41  
-Star-Lord- написано:

Для кращої якості краще використовувати такі параметри:
ref=5 / me=3 / subme=7 / tu-inter-depth=4 / tu-intra-depth=4 / rd=6 / rdoq-level=2 / psy-rd=2.00 / psy-rdoq=1.00 - 2.00 / rect / amp
І краще використовувати 10 біт, а не 8, але це вже на смак.
Дякую, спробую у майбутньому.
-Star-Lord- написано:
Але з такими параметрам час кодування сильно збільшиться.
З моїми у мене було по десь 10 годин на фільм на і5-6500.
-Star-Lord- написано:
Правильніше тільки їх і використовувати, бо вони мають максимальну підтримку програвачами.

Зрозуміло. Тож краще додавати обидва варіанти.

MakRA, дякую!

Spaceberry 
Новенький


З нами з: 16.11.16
Востаннє: 23.01.21
Повідомлень: 22

2020-10-21 12:33  
Чомусь я завжди минав стороною цей фiльм, бо думав ще це черговий бойовичок з 80-их. I шкодую, що не подивився ранiше. Тиждень назад глянув першу частину, сьогоднi другу i скажу що франшиза Beverly Hills Cop дiйсно заслуговує статус культової. Багато оригiнальних iдей в планi гумору, кмiтливий головний герой у якого багато iдей в головi але всi вони впорядкованi. Качаю третю частину.
ukrnet 
Свій


З нами з: 03.01.14
Востаннє: 24.01.21
Повідомлень: 112

2020-12-23 20:48  
дайте швидкість пліз
dimabrown 
Новенький


З нами з: 05.03.12
Востаннє: 26.01.21
Повідомлень: 7

2021-01-13 01:27  
дайте швидкості будь ласка на другу та третю частину
Ваш часовий пояс: GMT + 2 Години

Нова тема   Відповісти