Лего Ніндзяго. Таємниці Заборонених Спінжіцу / LEGO Ninjago: Secrets of Forbidden Spinjitzu (Сезон 11) (2019) 1080p

Нові коментарі

Нова тема   Відповісти
Автор Повідомлення
sergiyko.5 
Забанено
Забанено


З нами з: 25.02.16
Востаннє: 29.10.20
Повідомлень: 3648

2019-06-03 10:44  


Лего Ніндзяго. Таємниці Заборонених Спінжіцу / LEGO Ninjago: Secrets of Forbidden Spinjitzu (Сезон 11) (2019) 1080p

Лего Ніндзяго. Таємниці Заборонених Спінжіцу / LEGO Ninjago: Secrets of Forbidden Spinjitzu (Сезон 11) (2019) 1080p

Жанр: дитячий, пригоди, фентезі
Країна: Данія, Сингапур, Канада, США
Кінокомпанія: LEGO, Wil Film
Режисер: Пітер Хауснер, Мартін Скоу

Сюжет:
Дуже давно була створена Золота Зброя, яка володіє неймовірною надприродною силою. Його творець незабаром покинув цей світ і на його творення почалося полювання.

Глядацькому погляду будуть представлені маленькі чоловічки. Вони називають себе ніндзями і пропагують ідею про те, що справжня сила не втілена в фізичному сенсі, а полягає в освіченому розумі. Довгий час Зейн, Джей, Коул і Кай переймали знання про бойове мистецтво від наставника. Їх чекає завдання з порятунку країни і розшуку Золотої Зброї. Цьому щосили буде перешкоджати Гармадон, щоб заволодіти реліквією зброї.




Тривалість: серія: 10:34 (цілком серій: 30 з 30)
Якість:

Відео: кодек: розмір кадру: 1920 х 1080 бітрейт: 5000 кб/с
Аудіо: мова: українська переклад: професійний дубльований кодек: 2.0 бітрейт: 192 кб/с
Озвучення:

Примітка: українська доріжка записана з супутникової(01-08) та Т2(09-30) трансляції телеканала ПлюсПлюс і синхронізована під HD відео.
Перелік серій

01 Wasted True Potential
02 Questing For Quest
03 A Rocky Start
04 The Belly of The Beast
05 Як вибратися з пастки / Boobytraps and How to Survive Them
06 Новини не сплять / The News Never Sleeps
07 Ніндзя проти лави / Ninja vs. Lava
08 Зміїна навала / Snaketastrophy
09 Безсилі
10 Прадавня історія
11 Ніколи не довіряй людям
12 В облозі
13 Клуб дослідників
14 Час розплати
15 Холодне прощання
16 Порожнеча
17 Творець вогню
18 Несподіваний союзник
19 Найнестерпніший ніндзя
20 Послання
21 Мандрівне дерево
22 Тужіння Крега
23 Таємниця вовка
24 Остання з перевертнів
25 Мій друг – мій ворог
26 Операція "Монстр"
27 Обман
28 Крихка надія
29 Раз і назавжди
30 Пробудження
Про файл:
General
Unique ID : 114846509544693133574637618903905054189 (0x5666A217B1C467DD77803140DDADADED)
Complete name : G:\Torrents2\MULT\MuSERIAL\Lego Ninjago Secrets of Forbidden Spinjitzu 1080p \S11E01.Wasted True Potential.1080p..
Format :
Format version : Version 4
File size : 393 MiB
Duration : 10 min 34 s
Overall bit rate : 5 193 kb/s
Movie name : Lego Ninjago Secrets of Forbidden Spinjitzu 1080p by sergiyko
Encoded date : UTC 2019-06-03 11:14:28
Writing application : v34.0.0 ('Sight and Seen') 64-bit
Writing library : libebml v1.3.7 + v1.5.0

Video
ID : 1
Format : AVC
Format/Info : Advanced Video Codec
Format profile : [email protected]
Format settings : CABAC / 8 Ref Frames
Format settings, CABAC : Yes
Format settings, Reference : 8 frames
Codec ID : V_MPEG4/ISO/AVC
Duration : 10 min 34 s
Bit rate : 5 010 kb/s
Width : 1 920 pixels
Height : 1 080 pixels
Display aspect ratio : 16:9
Frame rate mode : Constant
Frame rate : 25.000 FPS
Color space : YUV
Chroma subsampling : 4:2:0
Bit depth : 8 bits
Scan type : Progressive
Bits/(Pixel*Frame) : 0.097
Stream size : 378 MiB (96%)
Title : S11E01.Wasted True Potential
Writing library : core 146 r2538 121396c
Encoding settings : cabac=1 / ref=8 / deblock=1:-1:-1 / analyse=0x3:0x133 / me=umh / subme=9 / psy=1 / psy_rd=0.40:0.00 / mixed_ref=1 / me_range=24 / chroma_me=1 / trellis=2 / 8x8dct=1 / cqm=0 / deadzone=21,11 / fast_pskip=1 / chroma_qp_offset=-2 / threads=24 / lookahead_threads=2 / sliced_threads=0 / nr=0 / decimate=1 / interlaced=0 / bluray_compat=0 / constrained_intra=0 / bframes=6 / b_pyramid=2 / b_adapt=2 / b_bias=0 / direct=3 / weightb=1 / open_gop=0 / weightp=2 / keyint=250 / keyint_min=25 / scenecut=40 / intra_refresh=0 / rc_lookahead=60 / rc=2pass / mbtree=1 / bitrate=5010 / ratetol=1.0 / qcomp=0.70 / qpmin=0 / qpmax=69 / qpstep=4 / cplxblur=20.0 / qblur=0.5 / vbv_maxrate=30000 / vbv_bufsize=40000 / nal_hrd=none / filler=0 / ip_ratio=1.40 / aq=1:0.60
Language : English
Default : Yes
Forced : No

Audio
ID : 2
Format : AC-3
Format/Info : Audio Coding 3
Commercial name : Dolby Digital
Codec ID : A_AC3
Duration : 10 min 34 s
Bit rate mode : Constant
Bit rate : 192 kb/s
Channel(s) : 2 channels
Channel layout : L R
Sampling rate : 48.0 kHz
Frame rate : 31.250 FPS (1536 SPF)
Bit depth : 16 bits
Compression mode : Lossy
Stream size : 14.5 MiB (4%)
Title : DUB 2ch | ПлюсПлюс
Language : Ukrainian
Service kind : Complete Main
Default : Yes
Forced : No
Скріншоти:


Автор запису/ріпу: sergiyko


Бронзовий реліз (на рейтинг впливає 75% завантаженого)
 Трекер:    Зареєстрований   

Завантажити / скачати мультфільм українською



відео для новачків



 Зареєстрований:   2020-03-01 12:41
 Розмір:   11.17 GB 
 Оцінка мультсеріалу:   9.9/10 (Голосів: 19)
   
sergiyko.5 
Забанено
Забанено


З нами з: 25.02.16
Востаннє: 29.10.20
Повідомлень: 3648

2019-06-03 14:35  
Суперновинка!

В США трансляція тільки 29 червня!

sergiyko.5 
Забанено
Забанено


З нами з: 25.02.16
Востаннє: 29.10.20
Повідомлень: 3648

2019-06-12 16:35  
Додав 5-8 серії.
ЧУЧАЛО 
Новенький


З нами з: 08.09.16
Востаннє: 15.03.20
Повідомлень: 3

2019-07-09 13:20  
Скажіть будь ласка чи буде 10-11 сезони в якості AVC з аудіо кодеком мр3 чи 2
sergiyko.5 
Забанено
Забанено


З нами з: 25.02.16
Востаннє: 29.10.20
Повідомлень: 3648

2019-07-09 13:35  
ЧУЧАЛО
Ні, якщо вам потрібні саме такі файли, зробіть їх перекодуванням з цього релізу.

DrLivsi_ 
Частий відвідувач


З нами з: 14.12.12
Востаннє: 14.04.21
Повідомлень: 48

2019-07-21 16:01  
Перепрошую, а це повний сезон?
Бо щось восьма серія непереконливо закінчилася.

sergiyko.5 
Забанено
Забанено


З нами з: 25.02.16
Востаннє: 29.10.20
Повідомлень: 3648

2019-07-21 16:17  
Ні, це не повний сезон, в описі зазначено - 8 серій з 30. Просто інші телеканал не транслював.
Sergio197627 
Новенький


З нами з: 22.11.14
Востаннє: 08.04.21
Повідомлень: 5

2019-08-28 20:09  
Прошу вибачення, а коли чекати продовження? Бо вдома дехто вже мозок вигриз Happy))
sergiyko.5 
Забанено
Забанено


З нами з: 25.02.16
Востаннє: 29.10.20
Повідомлень: 3648

2019-08-28 20:13  
Sergio197627
У мене інформації немає, спитайте у телеканала ПлюсПлюс, слідкуйте за їх анонсами.

myshkommp 
Новенький


З нами з: 07.03.15
Востаннє: 11.04.21
Повідомлень: 4

2020-02-09 19:06  
Вітаю всіх! На плюсплюсі зараз якраз показують нові серії, на 1+1відео доступні 9 і 10 серії!!!
sergiyko.5 
Забанено
Забанено


З нами з: 25.02.16
Востаннє: 29.10.20
Повідомлень: 3648

2020-02-09 19:07  
Записую. Скоро будуть і тут.
sergiyko.5 
Забанено
Забанено


З нами з: 25.02.16
Востаннє: 29.10.20
Повідомлень: 3648

2020-02-24 00:03  
Додав 9-24 серії.
Alert73 
Новенький


З нами з: 01.01.17
Востаннє: 27.02.21
Повідомлень: 1

2020-02-25 20:43  
sergiyko.5

Велике дякую!
малеча кожного дня питав за продовження Happy

sergiyko.5 
Забанено
Забанено


З нами з: 25.02.16
Востаннє: 29.10.20
Повідомлень: 3648

2020-03-01 12:42  
Додав 25-30 серії. Сезон повний. Приємного перегляду!
sergiy1306 
Новенький


З нами з: 27.08.14
Востаннє: 05.04.21
Повідомлень: 2

2020-03-16 17:35  
Будь ласка, станьте хтось на роздачу.
Motokuzz 
Новенький


З нами з: 27.10.16
Востаннє: 14.04.21
Повідомлень: 3

2020-04-18 09:04  
Англійська доріжка у планах є? :D Дуже дякую за 11 сезон українською!!!
SPredator 
Новенький


З нами з: 04.11.10
Востаннє: 04.04.21
Повідомлень: 2

2020-05-15 14:39  
Нажаль формат не відтворюється на телевізорі(
Ваш часовий пояс: GMT + 2 Години

Нова тема   Відповісти