План гри / The Game Plan (2007) 720p 2xUkr/Eng | Sub Ukr/Eng

Нові коментарі

Нова тема   Відповісти
Автор Повідомлення
Anonymous 







2019-06-02 01:12  
План гри / The Game Plan (2007) 720p 2xUkr/Eng | Sub Ukr/Eng

План гри / The Game Plan (2007) 720p 2xUkr/Eng | Sub Ukr/Eng
Офіційний постер:



Жанр: сімейний, спорт, комедія
Країна: США



Кінокомпанія: Auburn, Massachusetts, USA
Режисер: Енді Фікмен (Andy Fickman)
Актори: Двейн "Скеля" Джонсон (Dwayne Johnson), Медісон Петтіс (Madison Pettis), Кіра Седжвік (Kyra Sedgwick), Розелін Санчез (Roselyn Sanchez), Морріс Честнат (Morris Chestnut), Хейес МакАртур (Hayes MacArthur), Брайан Дж. Вайт (Brian J. White), Джамал Дафф (Jamal Duff), Пейдж Турко (Paige Turco), Таббс (Tubbs)

Сюжет:
Професійний гравець у американський футбол раптово дізнається про існування своєї дочки. Дочка, яка з'явилася нізвідки, допомагає спортсмену перекваліфікуватися з справжнього холостяка у зразково-показового татуся.


Рейтинг MPAA: PG - рекомендується присутність батьків
Вікова категорія: 0+

Тривалість: 01:50:15
Якість: 720p

Відео:
кодек:
розмір кадру: 1280х534
бітрейт: 6098 кб/с

Аудіо # 1:
мова: українська
переклад: багатоголосий закадровий | студія LeDoyen
кодек: 2.0 [стерео]
бітрейт: 192 кб/с
Інформація про озвучення:

Аудіо # 2:
мова: українська
переклад: багатоголосий закадровий | Так Треба Продакшн на замовлення ICTV
кодек: 2.0
бітрейт: 192 кб/с

Аудіо # 3:
мова: англійська
переклад: оригінал
кодек: 5.1
бітрейт: 640 кб/с

Аудіо # 4:
мова: англійська
переклад: коментарі режисера Енді Фікмена та актора Двейна Джонсона
кодек: 2.0
бітрейт: 192 кб/с

Субтитри # 1:
мова: українська
тип: програмні (м'які)
формат: *.srt

Субтитри # 2-3:
мова: англійська (повні, SDH)
тип: програмні (м'які)
формат: *.srt

Збережено оригінальні розділи, як на Blu-ray
Info
Код:

Complete name               : The Game Plan (2007) [2xUkr,Eng sub.Ukr,Eng] 720p [Hurtom].
Format                      :
Format version              : Version 4
File size                   : 5.64 GiB
Duration                    : 1 h 50 min
Overall bit rate            : 7 317 kb/s
Movie name                  : The Game Plan (2007) [2xUkr,Eng sub.Ukr,Eng] 720p [Hurtom]
Encoded date                : UTC 2019-06-01 22:06:20
Writing application         : v34.0.0 ('Sight and Seen') 64-bit
Writing library             : libebml v1.3.7 + v1.5.0
Cover                       : Yes
Attachments                 : cover.jpg

Video
ID                          : 1
Format                      : AVC
Format/Info                 : Advanced Video Codec
Format profile              : [email protected]
Format settings             : CABAC / 7 Ref Frames
Format settings, CABAC      : Yes
Format settings, Reference  : 7 frames
Codec ID                    : V_MPEG4/ISO/AVC
Duration                    : 1 h 50 min
Bit rate                    : 6 098 kb/s
Width                       : 1 280 pixels
Height                      : 534 pixels
Display aspect ratio        : 2.40:1
Frame rate mode             : Constant
Frame rate                  : 23.976 FPS
Color space                 : YUV
Chroma subsampling          : 4:2:0
Bit depth                   : 8 bits
Scan type                   : Progressive
Bits/(Pixel*Frame)          : 0.372
Stream size                 : 4.70 GiB (83%)
Title                       : The Game Plan (2007) 720p [HDClub]
Writing library             : core 104 r1713 c276662
Encoding settings           : cabac=1 / ref=7 / deblock=1:-2:-2 / analyse=0x3:0x113 / me=umh / subme=10 / psy=1 / psy_rd=1.00:0.00 / mixed_ref=1 / me_range=32 / chroma_me=1 / trellis=2 / 8x8dct=1 / cqm=0 / deadzone=21,11 / fast_pskip=0 / chroma_qp_offset=-2 / threads=6 / sliced_threads=0 / nr=0 / decimate=1 / interlaced=0 / constrained_intra=0 / bframes=8 / b_pyramid=2 / b_adapt=2 / b_bias=0 / direct=3 / weightb=1 / open_gop=0 / weightp=2 / keyint=250 / keyint_min=23 / scenecut=40 / intra_refresh=0 / rc=crf / mbtree=0 / crf=16.7 / qcomp=0.60 / qpmin=10 / qpmax=51 / qpstep=4 / ip_ratio=1.40 / pb_ratio=1.30 / aq=1:0.80
Language                    : English
Default                     : Yes
Forced                      : No

Audio #1
ID                          : 2
Format                      : AC-3
Format/Info                 : Audio Coding 3
Commercial name             : Dolby Digital
Codec ID                    : A_AC3
Duration                    : 1 h 50 min
Bit rate mode               : Constant
Bit rate                    : 192 kb/s
Channel(s)                  : 2 channels
Channel layout              : L R
Sampling rate               : 48.0 kHz
Frame rate                  : 31.250 FPS (1536 SPF)
Bit depth                   : 16 bits
Compression mode            : Lossy
Stream size                 : 151 MiB (3%)
Title                       : MVO [LeDoyen] 2.0 [stereo] 192 Kbps
Language                    : Ukrainian
Service kind                : Complete Main
Default                     : Yes
Forced                      : No

Audio #2
ID                          : 3
Format                      : AC-3
Format/Info                 : Audio Coding 3
Commercial name             : Dolby Digital
Codec ID                    : A_AC3
Duration                    : 1 h 50 min
Bit rate mode               : Constant
Bit rate                    : 192 kb/s
Channel(s)                  : 2 channels
Channel layout              : L R
Sampling rate               : 48.0 kHz
Frame rate                  : 31.250 FPS (1536 SPF)
Bit depth                   : 16 bits
Compression mode            : Lossy
Stream size                 : 151 MiB (3%)
Title                       : MVO [Novyj, ICTV] 2.0 192 Kbps
Language                    : Ukrainian
Service kind                : Complete Main
Default                     : No
Forced                      : No

Audio #3
ID                          : 4
Format                      : AC-3
Format/Info                 : Audio Coding 3
Commercial name             : Dolby Digital
Codec ID                    : A_AC3
Duration                    : 1 h 50 min
Bit rate mode               : Constant
Bit rate                    : 640 kb/s
Channel(s)                  : 6 channels
Channel layout              : L R C LFE Ls Rs
Sampling rate               : 48.0 kHz
Frame rate                  : 31.250 FPS (1536 SPF)
Bit depth                   : 16 bits
Compression mode            : Lossy
Stream size                 : 505 MiB (9%)
Title                       : Original, 5.1 640 Kbps
Language                    : English
Service kind                : Complete Main
Default                     : No
Forced                      : No

Audio #4
ID                          : 5
Format                      : AC-3
Format/Info                 : Audio Coding 3
Commercial name             : Dolby Digital
Codec ID                    : A_AC3
Duration                    : 1 h 50 min
Bit rate mode               : Constant
Bit rate                    : 192 kb/s
Channel(s)                  : 2 channels
Channel layout              : L R
Sampling rate               : 48.0 kHz
Frame rate                  : 31.250 FPS (1536 SPF)
Bit depth                   : 16 bits
Compression mode            : Lossy
Stream size                 : 151 MiB (3%)
Title                       : Commentary Andy Fickman &  Dwayne Johnson, 2.0 192 Kbps
Language                    : English
Service kind                : Complete Main
Default                     : No
Forced                      : No

Text #1
ID                          : 6
Format                      : UTF-8
Codec ID                    : S_TEXT/UTF8
Codec ID/Info               : UTF-8 Plain Text
Duration                    : 1 h 47 min
Bit rate                    : 113 b/s
Count of elements           : 1596
Stream size                 : 89.3 KiB (0%)
Title                       : Ukr full
Language                    : Ukrainian
Default                     : No
Forced                      : No

Text #2
ID                          : 7
Format                      : UTF-8
Codec ID                    : S_TEXT/UTF8
Codec ID/Info               : UTF-8 Plain Text
Duration                    : 1 h 46 min
Bit rate                    : 72 b/s
Count of elements           : 1561
Stream size                 : 56.9 KiB (0%)
Title                       : Eng full
Language                    : English
Default                     : No
Forced                      : No

Text #3
ID                          : 8
Format                      : UTF-8
Codec ID                    : S_TEXT/UTF8
Codec ID/Info               : UTF-8 Plain Text
Duration                    : 1 h 48 min
Bit rate                    : 78 b/s
Count of elements           : 1860
Stream size                 : 62.2 KiB (0%)
Title                       : Eng SDH
Language                    : English
Default                     : No
Forced                      : No

Menu
00:00:00.000                : en:00:00:00.000
00:04:47.537                : en:00:04:47.537
00:10:32.632                : en:00:10:32.632
00:17:16.285                : en:00:17:16.285
00:23:54.141                : en:00:23:54.141
00:28:48.601                : en:00:28:48.601
00:32:17.060                : en:00:32:17.060
00:37:06.057                : en:00:37:06.057
00:43:39.324                : en:00:43:39.324
00:50:36.324                : en:00:50:36.324
00:54:43.863                : en:00:54:43.863
01:01:17.673                : en:01:01:17.673
01:08:45.120                : en:01:08:45.120
01:12:35.350                : en:01:12:35.350
01:18:57.190                : en:01:18:57.190
01:25:01.095                : en:01:25:01.095
01:29:12.972                : en:01:29:12.972
01:34:25.451                : en:01:34:25.451
01:40:33.235                : en:01:40:33.235
01:45:30.281                : en:01:45:30.281


Джерело: &
Подяки за українські доріжки: Electroz, NemoInFire, Bohdan237, karvai0;
за субтитри: kisluk (HDClub) та w2958l (Hurtom);
за постер: Тирік'у.


 Трекер:    Зареєстрований   

Завантажити / скачати фільм українською



відео для новачків



 Зареєстрований:   2019-06-02 01:12
 Розмір:   5.64 GB 
 Оцінка фільму:   9.5/10 (Голосів: 4)
   
Інші релізи
   План гри / The Game Plan (2007) AVC 2xUkr/Eng | Sub Ukr/Eng staf777  3 / 0   2.18 GB   2019-06-02 11:36 
   План гри / The Game Plan (2007) 1080p 2xUkr/Eng | Sub Ukr/Eng drop_plz  3 / 0   8.25 GB   2019-06-01 11:35 
   План гри / The Game Plan (2007) 2xUkr | Sub Ukr Electroz  6 / 0   1.46 GB   2019-05-31 22:56 
   План гри / The Game Plan (2007) Ukr/Eng | Sub Ukr Тирік  0 / 0   2.23 GB   2011-02-08 10:25 
Anonymous 







2020-06-24 17:08  
Гарний фільм для сімейного перегляду з дітьми.
Ваш часовий пояс: GMT + 2 Години

Нова тема   Відповісти