Пастка-22 (Сезон 1) / Catch-22 (Season 1) (2019) 720p Ukr/Eng

Нові коментарі

Нова тема   Відповісти
Автор Повідомлення
Anonymous 







2019-06-01 18:50  
Пастка-22 (Сезон 1) / Catch-22 (Season 1) (2019) 720p Ukr/Eng

Пастка-22 (Сезон 1) / Catch-22 (Season 1) (2019) 720p Ukr/Eng


Жанр: комедія, кримінальний, драма
Країна: США



Кінокомпанія: Hulu
Режисер: Джордж Клуні, Грант Хеслов, Еллен Курас
Актори: Крістофер Ебботт, Кайл Чендлер, Джордж Клуні, Мартін Делейні, Рафі Гаврон, Джанкарло Джанніні, Герран Говелл, Хью Лорі, Грехем Патрік Мартін, Кевін Джей. О'Коннор, Лоренцо Ротаторі, Деніел Девід Стюарт, Остін Стовелл, Тесса Феррер, Джей Полсон

Сюжет:
Міні-серіал заснований на однойменному романі Джозефа Геллера, дії якого відбуваються у 1944 році і розповідає про капітана Йоссаріана, який разом зі своїм бомбардувальним полком дислокується на одному з островів Тірренського моря. Офіцер хоче швидше забратися подалі від військових дій, посилаючись на божевілля, так як тільки психічне захворювання служить офіційним аргументом для усунення від бойових вильотів. Проте в уряду США є постанова, «Пастка-22», згідно з якою кожен, хто називає себе божевільним, щоб отримати звільнення від військового обов'язку, цим самим зверненням доводить зворотне, бо такі заяви свідчать про розсудливість.


Тривалість: 1 серія: ~ 45 хв. (цілком серій: 6)
Перелік серій
1. Episode #1.1
2. Episode #1.2
3. Episode #1.3
4. Episode #1.4
5. Episode #1.5
6. Episode #1.6
Якість: 720p
Відео:
кодек:
розмір кадру: 1280 х 720
бітрейт: 2798 кб/с

Аудіо # 1:
мова: українська
переклад: багатоголосий закадровий
кодек: 2.0
бітрейт: 192 кб/с

Аудіо # 2:
мова: англійська
переклад: оригінал
кодек: 2.0
бітрейт: 64 кб/с

Джерело озвучення:
DniproFilm
Info
General
Unique ID : 51618088697192040993237457209945982787 (0x26D54842CE9FD3A42C428AC084138743)
Complete name : Catch-22 S01E01 (2019) Rip 720p [UKR.ENG] [Hurtom].
Format :
Format version : Version 4
File size : 992 MiB
Duration : 45 min 20 s
Overall bit rate : 3 058 kb/s
Movie name : Пастка-22 (Сезон 1, серія 1) (2019)
Encoded date : UTC 2019-05-29 19:16:01
Writing application : v30.1.0 ('Forever And More') 64-bit
Writing library : libebml v1.3.6 + v1.4.9
Cover : Yes
Attachments : cover.jpg

Video
ID : 1
Format : AVC
Format/Info : Advanced Video Codec
Format profile : [email protected]
Format settings : CABAC / 5 Ref Frames
Format settings, CABAC : Yes
Format settings, ReFrames : 5 frames
Codec ID : V_MPEG4/ISO/AVC
Duration : 45 min 20 s
Bit rate : 2 798 kb/s
Width : 1 280 pixels
Height : 720 pixels
Display aspect ratio : 16:9
Frame rate mode : Constant
Frame rate : 23.976 (24000/1001) FPS
Color space : YUV
Chroma subsampling : 4:2:0
Bit depth : 8 bits
Scan type : Progressive
Bits/(Pixel*Frame) : 0.127
Stream size : 907 MiB (92%)
Language : English
Default : Yes
Forced : No

Audio #1
ID : 2
Format : AC-3
Format/Info : Audio Coding 3
Commercial name : Dolby Digital
Codec ID : A_AC3
Duration : 45 min 20 s
Bit rate mode : Constant
Bit rate : 192 kb/s
Channel(s) : 2 channels
Channel layout : L R
Sampling rate : 48.0 kHz
Frame rate : 31.250 FPS (1536 SPF)
Bit depth : 16 bits
Compression mode : Lossy
Stream size : 62.3 MiB (6%)
Language : Ukrainian
Service kind : Complete Main
Default : Yes
Forced : Yes

Audio #2
ID : 3
Format : LC SBR
Format/Info : Advanced Audio Codec Low Complexity with Spectral Band Replication
Commercial name : HE-
Format settings : Explicit
Codec ID : A_AAC-2
Duration : 45 min 20 s
Bit rate : 64.0 kb/s
Channel(s) : 2 channels
Channel layout : L R
Sampling rate : 48.0 kHz
Frame rate : 23.438 FPS (2048 SPF)
Compression mode : Lossy
Stream size : 20.8 MiB (2%)
Language : English
Default : No
Forced : No
Скріншоти





бонусHappy


Джерело:


Авторський реліз (завантажувати можна без реєстрації)
 Трекер:    Зареєстрований   

Завантажити / скачати серіал українською



відео для новачків



 Зареєстрований:   2019-06-01 18:50
 Розмір:   5.38 GB 
 Оцінка серіалу:   9.6/10 (Голосів: 50)
   
kordivka 
Новенький


З нами з: 02.01.19
Востаннє: 27.07.19
Повідомлень: 4

2019-06-01 19:47  
перша серія з Клуні ще якось зайшла хоча й не айс. інші розтягнуто...
vic7400 
Частий відвідувач


З нами з: 25.01.13
Востаннє: 02.12.20
Повідомлень: 34

2019-06-01 20:41  
просто супер,таке душевне і позитивне.
І ні на мить не забуваєш про жах війни.
Клуні став справжнім майстром

O_omarella! 
Поважний учасник


З нами з: 14.06.13
Востаннє: 28.10.20
Повідомлень: 197

2019-06-01 22:16  
Вже є 1080p.
opatskyi 
Новенький


З нами з: 02.01.17
Востаннє: 04.12.20
Повідомлень: 5

2019-06-05 22:04  
виверт-22, на мій погляд, так варто перекласти назву цього серіалу.
Dark Invader 
Модератор відео


З нами з: 06.01.11
Востаннє: 04.12.20
Повідомлень: 3010

2019-06-06 01:32  
Український постер:

Пастка-22 (Сезон 1) / Catch-22 (Season 1) (2019) 720p Ukr/Eng

Nikko033 
VIP


З нами з: 31.12.12
Востаннє: 04.12.20
Повідомлень: 628

2019-06-14 22:25  
дуже і дуже достойний серіал 9/10
zaika 
VIP


З нами з: 01.07.12
Востаннє: 04.12.20
Повідомлень: 1243

2019-06-18 07:18  
Дуже гарний серіал вийшов. Набагато сильніший ніж Виверт-22 Майка Ніколса. Але однаково він не дотягує до книги Джезефа Геллера, яку я читав ще в 1972 році під назвою Уловка-22 будучи к совітській армії. Пізніше я її читав іще з десяток разів, в українському перекладі. Серіал дуже близький до цього антивоєнного, сатиричного шедевра. Недарма він вийшов в армійському агітпромі в совдепії. Напевне його неможливо передати засобами кіно. І все ж 9/10.
Yarik M 
VIP


З нами з: 25.10.12
Востаннє: 04.12.20
Повідомлень: 532

2019-06-24 12:31  
Очікував більшого. Серіал хороший, але без чогось надзвичайно захопливого. Подивився і забув. Комедійної складової я в ньому майже не помітив. Гумор дуже притягнутий за вуха. До перегляду радив би, тільки щоб скоротати час. 7,5/10.
Siegfried 
VIP


З нами з: 01.11.11
Востаннє: 03.12.20
Повідомлень: 337

2019-06-27 09:14  
Чекав кращого.
Фільм комедією взагалі не назвав би.
Навпаки – це трагічна стрічка про приреченість головного героя і неможливість вирватися з неї.
Все тримається на сильній грі Крістофера Ебботта, дуже якісно втілив образ і емоції свого персонажа.
Разового перегляду заслуговує, але повторно дивитися охоти нема.

5.5/10

toma1408 
VIP


З нами з: 28.08.10
Востаннє: 28.11.20
Повідомлень: 345

2020-05-19 06:35  
Однозначно - один з кращих антивоєнних фільмів. 10/10
fortomorrow10 
Новенький


З нами з: 06.01.15
Востаннє: 02.12.20
Повідомлень: 2

2020-11-29 21:08  
Чомусь дуже зайшов! На подив якісний серіал
Ваш часовий пояс: GMT + 2 Години

Нова тема   Відповісти