Дорожня пригода [Розширена версія] / Road Trip [Unrated version] (2000) Remux 1080p Ukr/Eng | Sub Eng

Нові коментарі

Нова тема   Відповісти
Автор Повідомлення
MakRA 
VIP


З нами з: 11.11.18
Востаннє: 20.09.20
Повідомлень: 1119

2019-06-01 01:26  
Дорожня пригода [Розширена версія] / Road Trip [Unrated version] (2000) Remux 1080p Ukr/Eng | Sub Eng

Дорожня пригода [Розширена версія] / Road Trip [Unrated version] (2000) Remux 1080p Ukr/Eng | Sub Eng

Український постер:


Жанр: комедія, пригодницький
Країна: США



Кінокомпанія: DreamWorks, The Montecito Picture Company
Режисер: Тодд Філіпс [Todd Phillips]
Актори: Брекін Мейер [Breckin Meyer], Шонн Вільям Скотт [Seann William Scott], Емі Смарт [Amy Smart], Пауло Костанцо [Paulo Costanzo], DJ Куоллс [DJ Qualls], Том Грін [Tom Green], Енді Дік [Andy Dick], Едмунд Ліндек [Edmund Lyndeck], Гораціо Санз [Horatio Sanz], Ітен Саплі [Ethan Suplee].

Сюжет:
Зраджувати власній дівчині, прямо скажемо, недобре! І вже тим більше недобре записувати весь процес зради на камеру. І просто неприпустимо, нехай навіть помилково, відправляти пікантний відеозапис своїй симпатії в подарунок. Тепер врятувати становище може тільки шалена поїздка через всю Америку, щоб перехопити нещасливу плівку раніше, ніж вона потрапить до адресата. Але не чекайте, що все буде йти «як по маслу». Вас чекає дорожня пригода, в порівнянні з яким поїздка на американських гірках – всього лише гра в пісочниці!
Цікаве про фільм:

-Служитель мотелю читає журнал з зображенням Дрю Беррімор на обкладинці. На момент зйомок Дрю була заручена з актором Томом Гріном, який виконав роль Баррі Манілов.
-Кріспін Гловер пробувався на роль Джейкоба.
-Попри те, що за сценарієм зйомки повинні були пройти в навчальних закладах Ітакі, Бостона і Остіна, практично всі подібні сцени були зняті в Університеті Джорджії.
-Режисерське камео: Тодд Філіпс виконав епізодичну роль фетишиста, вилизує ноги головної героїні картини — дівчини на ім'я Бетт.
-За первинним задумом, під час сцени, коли неудачливі мандрівники намагаються перестрибнути на машині через міст, мала звучати знаменита композиція з Бондіани в обробці Мобі. Проте згодом вона була замінена на простішу пісеньку, адже використання такого хіта в кінокартині вимагало б додаткового роздування бюджету.
-Розмовляючого пса озвучив американський комік Джиммі Кіммел.




Тривалість: 01:34:13
Якість: Remux 1080p
Відео:
кодек:
розмір кадру: 1920 х 1080
бітрейт: 31,8 Mб/с

Аудіо # 1:
мова: українська
переклад: багатоголосий закадровий
кодек: 2.0
бітрейт: 128 кб/с

Аудіо # 2:
мова: англійська
переклад: оригінал
кодек: -HD MA 5.1
бітрейт: 4121 кб/с

Аудіо # 3:
мова: англійська
переклад: оригінал
кодек: 5.1
бітрейт: 448 кб/с

Субтитри # 1:
мова: англійська
тип: програмні (м'які)
формат: *.srt

Субтитри # 2:
мова: англійська
тип: пререндерні
формат: *.pgs

Збережено оригінальні розділи, як на Blu-ray.
Info
General
Unique ID : 307717719367744854131627835427000544114 (0xE78046EA729FDB3A5A0D0F0A25B1EB72)
Complete name : E:\Комедії\Road Trip [Unrated version] (2000) Remux 1080p UkrEng Sub Eng.
Format :
Format version : Version 4 / Version 2
File size : 24.1 GiB
Duration : 1 h 34 min
Overall bit rate mode : Variable
Overall bit rate : 36.6 Mb/s
Movie name : Дорожня пригода [Розширена версія] / Road Trip [Unrated version] (2000) Remux 1080p Ukr/Eng | Sub Eng
Encoded date : UTC 2019-05-31 15:44:32
Writing application : v25.0.0 ('Prog Noir') 64-bit
Writing library : libebml v1.3.6 + v1.4.9
Attachments : Road.Trip_front.jpg

Video
ID : 1
Format : AVC
Format/Info : Advanced Video Codec
Format profile : [email protected]
Format settings, CABAC : Yes
Format settings, RefFrames : 2 frames
Codec ID : V_MPEG4/ISO/AVC
Duration : 1 h 34 min
Bit rate mode : Variable
Bit rate : 31.8 Mb/s
Width : 1 920 pixels
Height : 1 080 pixels
Display aspect ratio : 16:9
Frame rate mode : Constant
Frame rate : 23.976 (24000/1001) FPS
Color space : YUV
Chroma subsampling : 4:2:0
Bit depth : 8 bits
Scan type : Progressive
Bits/(Pixel*Frame) : 0.640
Stream size : 21.0 GiB (87%)
Title : Road Trip [Unrated version] (2000) Remux 1080p Ukr/Eng | Sub Eng
Language : Ukrainian
Default : Yes
Forced : Yes

Audio #1
ID : 2
Format : AC-3
Format/Info : Audio Coding 3
Format settings, Endianness : Big
Codec ID : A_AC3
Duration : 1 h 34 min
Bit rate mode : Constant
Bit rate : 128 kb/s
Channel(s) : 2 channels
Channel positions : Front: L R
Sampling rate : 48.0 kHz
Frame rate : 31.250 FPS (1536 SPF)
Bit depth : 16 bits
Compression mode : Lossy
Delay relative to video : 4 ms
Stream size : 86.2 MiB (0%)
Title : MVO [НОВИЙ] 2.0
Language : Ukrainian
Service kind : Complete Main
Default : Yes
Forced : Yes

Audio #2
ID : 3
Format :
Format/Info : Digital Theater Systems
Format profile : MA / Core
Mode : 16
Format settings, Endianness : Big
Codec ID : A_DTS
Duration : 1 h 34 min
Bit rate mode : Variable / Constant
Bit rate : 4 121 kb/s / 1 509 kb/s
Channel(s) : 6 channels
Channel positions : Front: L C R, Side: L R, LFE
Sampling rate : 48.0 kHz
Frame rate : 93.750 FPS (512 SPF)
Bit depth : 24 bits
Compression mode : Lossless / Lossy
Stream size : 2.71 GiB (11%)
Title : Original -HD MA 5.1
Language : English
Default : No
Forced : No

Audio #3
ID : 4
Format : AC-3
Format/Info : Audio Coding 3
Format settings, Endianness : Big
Codec ID : A_AC3
Duration : 1 h 34 min
Bit rate mode : Constant
Bit rate : 448 kb/s
Channel(s) : 6 channels
Channel positions : Front: L C R, Side: L R, LFE
Sampling rate : 48.0 kHz
Frame rate : 31.250 FPS (1536 SPF)
Bit depth : 16 bits
Compression mode : Lossy
Stream size : 302 MiB (1%)
Title : Original 5.1
Language : English
Service kind : Complete Main
Default : No
Forced : No

Text #1
ID : 5
Format : UTF-8
Codec ID : S_TEXT/UTF8
Codec ID/Info : UTF-8 Plain Text
Duration : 1 h 29 min
Bit rate : 67 b/s
Count of elements : 1355
Stream size : 44.4 KiB (0%)
Title : Eng (Full)
Language : English
Default : No
Forced : No

Text #2
ID : 6
Format : PGS
Muxing mode : zlib
Codec ID : S_HDMV/PGS
Codec ID/Info : Picture based subtitle format used on BDs/HD-DVDs
Duration : 1 h 29 min
Bit rate : 44.2 kb/s
Count of elements : 2710
Stream size : 28.2 MiB (0%)
Title : Eng (Full)
Language : English
Default : No
Forced : No

Menu
00:00:00.000 : en:00:00:00.000
00:07:05.800 : en:00:07:05.800
00:09:28.943 : en:00:09:28.943
00:11:27.604 : en:00:11:27.604
00:15:58.040 : en:00:15:58.040
00:18:58.137 : en:00:18:58.137
00:23:36.540 : en:00:23:36.540
00:26:40.474 : en:00:26:40.474
00:30:26.700 : en:00:30:26.700
00:33:11.448 : en:00:33:11.448
00:38:01.070 : en:00:38:01.070
00:40:54.952 : en:00:40:54.952
00:46:17.942 : en:00:46:17.942
00:49:42.771 : en:00:49:42.771
00:53:18.237 : en:00:53:18.237
00:58:22.499 : en:00:58:22.499
01:02:17.692 : en:01:02:17.692
01:06:10.675 : en:01:06:10.675
01:08:17.760 : en:01:08:17.760
01:11:37.710 : en:01:11:37.710
01:15:34.947 : en:01:15:34.947
01:20:32.453 : en:01:20:32.453
01:26:15.462 : en:01:26:15.462
01:30:08.194 : en:01:30:08.194
Скріншоти
Джерело: &
За звукову доріжку подяка п. COSMOS, за постер українською п. Givi_мол.
Особиста оцінка: 10 - без зайвих вагань рекомендую всім!


Золотий реліз (завантажене не впливає на рейтинг)
 Трекер:    Зареєстрований   

Завантажити / скачати фільм українською



відео для новачків



 Зареєстрований:   2019-06-01 01:26
 Розмір:   24.06 GB 
 Оцінка фільму:   10/10 (Голосів: 14)
   
Інші релізи
   Дорожня пригода / Road Trip (2000) AVC Ukr/Eng | Sub Eng staf777  6 / 0   2.68 GB   2018-07-11 16:00 
   Дорожня пригода / Road Trip (2000) Givi  3 / 0   1.36 GB   2011-01-17 23:20 
ngxwinger 
Свій


З нами з: 19.01.14
Востаннє: 12.09.20
Повідомлень: 66

2019-06-06 00:03  
Серйозно не знаю чому раніше не бачив цього фільму, нам с дружиною дуже сподобалась стрічка)) Цілком в дусі Євротуру, а точніше навпаки мабуть, оскільки той на 4 роки пізніше вийшов))
Custo 12 
Свій


З нами з: 08.11.16
Востаннє: 01.09.20
Повідомлень: 148

2019-06-10 16:16  
Сто разів його бачив! Одна з тих класичних комедій на віки.
Ваш часовий пояс: GMT + 2 Години

Нова тема   Відповісти