День патріота / Patriots Day (2016)

Нові коментарі

Нова тема   Відповісти
Автор Повідомлення
Anonymous 







2019-05-31 23:54  
День патріота / Patriots Day (2016)

День патріота / Patriots Day (2016)
Альтернативний та оригінальний постери:

День патріота / Patriots Day (2016)



Жанр: драма, кримінальний, історичний, трилер
Країна: Гонконг, США



Кінокомпанія: Bluegrass Films, CBS Films, Closest to the Hole Productions
Режисер: Пітер Берґ
Ролі озвучують: Марк Волберґ, Мішель Монаген, Дж. К. Сіммонс, Джон Ґудмен, Кевін Бейкон, Мелісса Бенойст, Рейчел Броснахен, Кліфф Мойлан, Алекс Вулф та інші

Сюжет:
Погляд на бостонську трагедію 2013 року очима комісара поліції Еда Девіса. Два вибухи на марафонському забігу оглушили світову громадськість, але не Еда і його колег, які розгортають розшук терористів по гарячих слідах.


Тривалість: 02:13:09
Якість:

Відео:
кодек:
розмір кадру: 720 х 304
бітрейт: 1370 Кб/с

Аудіо:
мова: українська
переклад: двоголосий закадровий
кодек: 2.0 [стерео]
бітрейт: 192 кб/с
Info:
Код:
General
Complete name               : Patriots Day (2016) [Ukr] [Hurtom].avi
Format                      : AVI
Format/Info                 : Audio Video Interleave
File size                   : 1.46 GiB
Duration                    : 2 h 13 min
Overall bit rate            : 1 571 kb/s
Movie name                  : День патріота / Patriots Day (2016) [Ukr] [Hurtom]
Writing application         : VirtualDubModUkr 1.5.10.2 (build 2542/release)
Writing library             : VirtualDubMod build 2542/release

Video
ID                          : 0
Format                      : MPEG-4 Visual
Format profile              : Advanced [email protected]
Format settings             : BVOP1 / Custom Matrix
Format settings, BVOP       : 1
Format settings, QPel       : No
Format settings, GMC        : No warppoints
Format settings, Matrix     : Custom
Codec ID                    :
Codec ID/Hint               :
Duration                    : 2 h 13 min
Bit rate                    : 1 370 kb/s
Width                       : 720 pixels
Height                      : 304 pixels
Display aspect ratio        : 2.35:1
Frame rate                  : 23.976 (24000/1001) FPS
Color space                 : YUV
Chroma subsampling          : 4:2:0
Bit depth                   : 8 bits
Scan type                   : Progressive
Compression mode            : Lossy
Bits/(Pixel*Frame)          : 0.261
Stream size                 : 1.27 GiB (87%)
Writing library             : 73

Audio
ID                          : 1
Format                      : AC-3
Format/Info                 : Audio Coding 3
Commercial name             : Dolby Digital
Codec ID                    : 2000
Duration                    : 2 h 13 min
Bit rate mode               : Constant
Bit rate                    : 192 kb/s
Channel(s)                  : 2 channels
Channel layout              : L R
Sampling rate               : 48.0 kHz
Frame rate                  : 31.250 FPS (1536 SPF)
Bit depth                   : 16 bits
Compression mode            : Lossy
Stream size                 : 183 MiB (12%)
Alignment                   : Split across interleaves
Interleave, duration        : 42  ms (1.00 video frame)
Interleave, preload duratio : 500  ms
Title                       : UKR DVO [2+2]
Service kind                : Complete Main


Джерело: &
Подяка Bohdan237, Sando7, Electroz за українську доріжку та Ham_R за постери.


 Трекер:    Зареєстрований   

Завантажити / скачати фільм українською



відео для новачків



 Зареєстрований:   2019-06-01 09:28
 Розмір:   1.46 GB 
 Оцінка фільму:   9.3/10 (Голосів: 15)
   
Інші релізи
andriy_nv 
VIP


З нами з: 27.06.08
Востаннє: 16.06.19
Повідомлень: 888

2019-06-16 18:23  
добре зняте кіно
цікаво дивитись

Ваш часовий пояс: GMT + 2 Години

Нова тема   Відповісти