Скелелаз / Cliffhanger (1993) [Remastered] 720p 2xUkr/Eng | Sub Eng

Нові коментарі

Нова тема   Відповісти
Автор Повідомлення
Anonymous 







2019-05-30 22:20  
Скелелаз / Cliffhanger (1993) [Remastered] 720p 2xUkr/Eng | Sub Eng

Скелелаз / Cliffhanger (1993) [Remastered] 720p 2xUkr/Eng | Sub Eng
Ще постер та обкладинка:



Скелелаз / Cliffhanger (1993) [Remastered] 720p 2xUkr/Eng | Sub Eng


Жанр: бойовик, трилер, пригодницький
Країна: США, Італія, Франція



Кінокомпанія: Carolco Pictures, Canal+, Pioneer
Режисер: Ренні Гарлін / Renny Harlin
Актори: Сильвестер Сталлоне / Sylvester Stallone, Джон Літґоу / John Lithgow, Майкл Рукер / Michael Rooker, Пол Вінфілд / Paul Winfield та інші

Сюжет:
У горах після снігової лавини загубилися п'ятеро людей. На пошуки вирушає один з найкращих альпіністів – Гейб Вокер. Несподівано він усвідомлює, що його навмисне заманили в гори для виконання іншого завдання.
Тепер очевидно, що Гейб стане небажаним свідком, якого позбудуться без вагань. Але так просто віддавати своє життя він не збирається, і оголошує війну банді озброєних до зубів бойовиків на чолі з міжнародним терористом Еріком Кваленом...


Рейтинг MPAA: R - особам до 17 років обов'язкова присутність батьків або дорослого опікуна
Вікова категорія: 16+

Тривалість: 01:52:30
Якість: 720p [4K Remastered - з нового скану плівки для 4K UHD Blu-ray 2018 року, якість набагато краща за попередні трансфери]
Детальне порівняння якості старого US трансфера (01:52:42) та цього нового скану (UK):
Відео:
кодек:
розмір кадру: 1280x544
бітрейт: 6739 кб/с

Аудіо # 1:
мова: українська
переклад: професійний дубльований | Cinema Sound Production
кодек: 2.0
бітрейт: 192 кб/с
примітка: з запису 25.05.2019, DVB-T2, 18 кГц

Аудіо # 2:
мова: українська
переклад: двоголосий закадровий
ролі озвучили: Олександр Завальський та Наталя Ярошенко
кодек: 2.0
бітрейт: 192 кб/с
примітка: по 1+1 та ТЕТ транслювався ідентичний переклад

Аудіо # 3:
мова: англійська
переклад: оригінал
кодек: 5.1
бітрейт: 448 кб/с

Субтитри:
мова: англійська
тип: програмні (м'які)
формат: *.srt

Збережено оригінальні розділи, як на Blu-ray.
Info
Код:

Complete name               : Cliffhanger (1993) [Remastered] [2xUkr,Eng sub.Eng] 720p [Hurtom].
Format                      :
Format version              : Version 4
File size                   : 5.95 GiB
Duration                    : 1 h 52 min
Overall bit rate            : 7 569 kb/s
Movie name                  : Скелелаз / Cliffhanger (1993) [Remastered] [2xUkr,Eng sub.Eng] 720p [Hurtom]
Encoded date                : UTC 2019-05-30 19:26:16
Writing application         : v34.0.0 ('Sight and Seen') 64-bit
Writing library             : libebml v1.3.7 + v1.5.0
Cover                       : Yes
Attachments                 : cover.jpg

Video
ID                          : 1
Format                      : AVC
Format/Info                 : Advanced Video Codec
Format profile              : [email protected]
Format settings             : CABAC / 11 Ref Frames
Format settings, CABAC      : Yes
Format settings, Reference  : 11 frames
Codec ID                    : V_MPEG4/ISO/AVC
Duration                    : 1 h 52 min
Bit rate                    : 6 739 kb/s
Width                       : 1 280 pixels
Height                      : 544 pixels
Display aspect ratio        : 2.35:1
Frame rate mode             : Constant
Frame rate                  : 24.000 FPS
Color space                 : YUV
Chroma subsampling          : 4:2:0
Bit depth                   : 8 bits
Scan type                   : Progressive
Bits/(Pixel*Frame)          : 0.403
Stream size                 : 5.29 GiB (89%)
Title                       : Скелелаз / Cliffhanger (1993) [Remastered] 720p [HDReactor]
Writing library             : core 157 r2935 545de2f
Encoding settings           : cabac=1 / ref=11 / deblock=1:-2:-2 / analyse=0x3:0x133 / me=umh / subme=11 / psy=1 / psy_rd=1.00:0.00 / mixed_ref=1 / me_range=32 / chroma_me=1 / trellis=2 / 8x8dct=1 / cqm=0 / deadzone=21,11 / fast_pskip=0 / chroma_qp_offset=-2 / threads=12 / lookahead_threads=1 / sliced_threads=0 / nr=0 / decimate=0 / interlaced=0 / bluray_compat=0 / constrained_intra=0 / bframes=11 / b_pyramid=2 / b_adapt=2 / b_bias=0 / direct=3 / weightb=1 / open_gop=0 / weightp=2 / keyint=240 / keyint_min=24 / scenecut=40 / intra_refresh=0 / rc=2pass / mbtree=0 / bitrate=6739 / ratetol=1.0 / qcomp=0.76 / qpmin=0 / qpmax=69 / qpstep=4 / cplxblur=20.0 / qblur=0.5 / ip_ratio=1.30 / pb_ratio=1.30 / aq=3:1.00
Language                    : English
Default                     : Yes
Forced                      : No

Audio #1
ID                          : 2
Format                      : AC-3
Format/Info                 : Audio Coding 3
Commercial name             : Dolby Digital
Codec ID                    : A_AC3
Duration                    : 1 h 52 min
Bit rate mode               : Constant
Bit rate                    : 192 kb/s
Channel(s)                  : 2 channels
Channel layout              : L R
Sampling rate               : 48.0 kHz
Frame rate                  : 31.250 FPS (1536 SPF)
Bit depth                   : 16 bits
Compression mode            : Lossy
Stream size                 : 155 MiB (3%)
Title                       : DUB [NLO TV] 2.0 192 Kbps
Language                    : Ukrainian
Service kind                : Complete Main
Default                     : Yes
Forced                      : No

Audio #2
ID                          : 3
Format                      : AC-3
Format/Info                 : Audio Coding 3
Commercial name             : Dolby Digital
Codec ID                    : A_AC3
Duration                    : 1 h 52 min
Bit rate mode               : Constant
Bit rate                    : 192 kb/s
Channel(s)                  : 2 channels
Channel layout              : L R
Sampling rate               : 48.0 kHz
Frame rate                  : 31.250 FPS (1536 SPF)
Bit depth                   : 16 bits
Compression mode            : Lossy
Stream size                 : 155 MiB (3%)
Title                       : DVO [2+2] 2.0 192 Kbps
Language                    : Ukrainian
Service kind                : Complete Main
Default                     : No
Forced                      : No

Audio #3
ID                          : 4
Format                      : AC-3
Format/Info                 : Audio Coding 3
Commercial name             : Dolby Digital
Codec ID                    : A_AC3
Duration                    : 1 h 52 min
Bit rate mode               : Constant
Bit rate                    : 448 kb/s
Channel(s)                  : 6 channels
Channel layout              : L R C LFE Ls Rs
Sampling rate               : 48.0 kHz
Frame rate                  : 31.250 FPS (1536 SPF)
Bit depth                   : 16 bits
Compression mode            : Lossy
Stream size                 : 361 MiB (6%)
Title                       : Original, 5.1 448 Kbps
Language                    : English
Service kind                : Complete Main
Default                     : No
Forced                      : No

Text
ID                          : 5
Format                      : UTF-8
Codec ID                    : S_TEXT/UTF8
Codec ID/Info               : UTF-8 Plain Text
Duration                    : 1 h 42 min
Bit rate                    : 49 b/s
Count of elements           : 1051
Stream size                 : 37.5 KiB (0%)
Language                    : English
Default                     : No
Forced                      : No

Menu
00:00:00.000                : en:01
00:11:50.500                : en:02
00:18:53.875                : en:03
00:30:00.875                : en:04
00:38:02.375                : en:05
00:47:21.291                : en:06
00:57:25.791                : en:07
01:07:35.250                : en:08
01:14:53.375                : en:09
01:25:19.666                : en:10
01:32:02.791                : en:11
01:44:34.208                : en:12


Джерела та подяки: &
Над українськими доріжками працювали: Bohdan237, igor911, karvai0, Romario_O, robotron005. Українські постери: Zubr139, Shkval.

Особиста оцінка: 8 - мені сподобалося


Срібний реліз (на рейтинг впливає 50% завантаженого)
 Трекер:    Зареєстрований   

Завантажити / скачати фільм українською



відео для новачків



 Зареєстрований:   2019-05-30 22:45
 Розмір:   5.95 GB 
 Оцінка фільму:   9.3/10 (Голосів: 18)
 ЗАЛИШАЙТЕСЬ ЯКОМОГА ДОВШЕ НА РОЗДАЧІ! ЗАВАНТАЖИВ САМ - ДАЙ ЗАВАНТАЖИТИ ІНШИМ!
   
Інші релізи
Ваш часовий пояс: GMT + 2 Години

Нова тема   Відповісти