Марія — королева Шотландії / Mary Queen of Scots (2018) UHD 4K 2160p HDR x265 Ukr/Eng | Sub Ukr/Eng

Нові коментарі

Нова тема   Відповісти
Останній раз роздавалося popelyastuy (2020-01-24)
Автор Повідомлення
Babamin 
Свій


З нами з: 29.12.15
Востаннє: 14.01.20
Повідомлень: 68

2019-05-30 18:14  
Марія — королева Шотландії / Mary Queen of Scots (2018) UHD 4K 2160p HDR x265 Ukr/Eng | Sub Ukr/Eng




Жанр: біографічний, драма, історичний
Країна: Велика Британія



Кінокомпанія: Universal Pictures, Focus Features, Working Title Films
Режисер: Джозі Рурк
Актори: Сірша Ронан, Марґо Роббі, Девід Теннант, Джек Лауден, Мартін Компстон, Джо Елвін, Ґай Пірс, Брендан Койл, Джемма Чан, Саймон Расселл Біл та інші

Сюжет:
Королева Франції в шістнадцять років і вдова у вісімнадцять. Її змушували знову вийти заміж, адже жінка одна нічого не зможе досягти в XVI столітті. Але Марія Стюарт вирішила вчинити зовсім інакше – вона повернулася до рідної Шотландії, щоб забрати собі трон. У той же час в Англії помер король, а престол дістався Єлизаветі І. Жінка зараз володіє всією Англією та Шотландією, і не збирається віддавати владу двоюрідній сестрі. Як дві жінки мали таку владу у країні, де всюди було верховенство чоловіків – велика загадка. Їх боротьба за трон увійшла в історію, тому що одна з них заради цієї влади віддала навіть свою голову.


Тривалість: 02:03:53
Якість: UltraHD 4K 2160p
Контейнер:

Відео:
кодек: H.265
розмір кадру: 3840 х 1608
бітрейт: 20,6 Мб/с
бітова глибина: 10 біт
кольоровий простір: BT.2020 (HDR)

Аудіо # 1:
мова: українська
переклад: професійний дубльований | студія LeDoyen
кодек: 2.0
бітрейт: 192 кб/с

Аудіо # 2:
мова: англійська
переклад: оригінал
кодек: 5.1
бітрейт: 640 кб/с

Субтитри #1-2
мова: українська (forced, full)
тип: програмні (м'які)
формат: *.srt

Субтитри #3-4
мова: англійська (full, SDH)
тип: програмні (м'які)
формат: *.srt
Log + Info:
[2019-05-30][16:03:21] x265 [info]: frame I: 1271, Avg QP:16.11 kb/s: 52724.76
[2019-05-30][16:03:21] x265 [info]: frame P: 26384, Avg QP:18.30 kb/s: 31268.87
[2019-05-30][16:03:21] x265 [info]: frame B: 150587, Avg QP:20.32 kb/s: 18474.22
[2019-05-30][16:03:21] x265 [info]: Weighted P-Frames: Y:14.1% UV:11.0%
[2019-05-30][16:03:21] x265 [info]: consecutive B-frames: 7.4% 4.1% 2.9% 14.6% 6.6% 15.8% 5.6% 18.9% 7.1% 7.4% 9.6%
[2019-05-30][16:03:21] encoded 178242 frames in 236916.64s (0.75 fps), 20612.36 kb/s, Avg QP:19.99

General
Complete name : Mary.Queen.of.Scots.2018.UHD-.4K.2160p.HDR.x265 -Hurtom.
Format :
Format version : Version 4
File size : 18.6 GiB
Duration : 2 h 5 min
Overall bit rate : 21.3 Mb/s
Movie name : Марія — королева Шотландії / Mary Queen of Scots (2018) UHD- 4K 2160p HDR x265 -Hurtom
Encoded date : UTC 2019-05-30 15:01:39
Writing application : v34.0.0 ('Sight and Seen') 64-bit
Writing library : libebml v1.3.7 + v1.5.0

Video
ID : 1
Format : HEVC
Format/Info : High Efficiency Video Coding
Format profile : Main [email protected]@High
HDR format : SMPTE ST 2086, HDR10 compatible
Codec ID : V_MPEGH/ISO/HEVC
Duration : 2 h 3 min
Bit rate : 20.6 Mb/s
Width : 3 840 pixels
Height : 1 608 pixels
Display aspect ratio : 2.40:1
Frame rate mode : Constant
Frame rate : 23.976 (24000/1001) FPS
Color space : YUV
Chroma subsampling : 4:2:0 (Type 2)
Bit depth : 10 bits
Bits/(Pixel*Frame) : 0.139
Stream size : 17.8 GiB (96%)
Title : Mary.Queen.of.Scots.2018.UHD-.4K.2160p.HDR.x265-Hurtom
Writing library : x265 3.0_Au+18-768ab38fd5fd:[Windows][GCC 8.3.0][64 bit] 10bit
Encoding settings : cpuid=1111039 / frame-threads=4 / numa-pools=16,16,16,16 / wpp / no-pmode / pme / no-psnr / no-ssim / log-level=2 / input-csp=1 / input-res=3840x1608 / interlace=0 / total-frames=178242 / level-idc=51 / high-tier=1 / uhd-bd=0 / ref=5 / no-allow-non-conformance / repeat-headers / annexb / aud / hrd / info / hash=0 / no-temporal-layers / no-open-gop / min-keyint=24 / keyint=250 / gop-lookahead=0 / bframes=10 / b-adapt=2 / b-pyramid / bframe-bias=0 / rc-lookahead=48 / lookahead-slices=6 / scenecut=40 / radl=0 / no-splice / no-intra-refresh / ctu=64 / min-cu-size=8 / rect / no-amp / max-tu-size=32 / tu-inter-depth=3 / tu-intra-depth=3 / limit-tu=0 / rdoq-level=2 / dynamic-rd=1.00 / no-ssim-rd / signhide / no-tskip / nr-intra=0 / nr-inter=0 / no-constrained-intra / strong-intra-smoothing / max-merge=3 / limit-refs=3 / limit-modes / me=3 / subme=7 / merange=57 / temporal-mvp / weightp / no-weightb / no-analyze-src-pics / deblock=-2:-2 / no-sao / no-sao-non-deblock / rd=3 / no-early-skip / no-rskip / no-fast-intra / no-tskip-fast / cu-lossless / no-b-intra / no-splitrd-skip / rdpenalty=2 / psy-rd=2.00 / psy-rdoq=3.00 / no-rd-refine / no-lossless / cbqpoffs=0 / crqpoffs=0 / rc=crf / crf=17.5 / qcomp=0.60 / qpstep=3 / stats-write=0 / stats-read=0 / vbv-maxrate=160000 / vbv-bufsize=160000 / vbv-init=0.9 / crf-max=0.0 / crf-min=0.0 / ipratio=1.30 / pbratio=1.10 / aq-mode=3 / aq-strength=1.00 / cutree / zone-count=0 / no-strict-cbr / qg-size=32 / rc-grain / qpmax=69 / qpmin=0 / const-vbv / sar=1 / overscan=0 / videoformat=5 / range=0 / colorprim=9 / transfer=16 / colormatrix=9 / chromaloc=1 / chromaloc-top=2 / chromaloc-bottom=2 / display-window=0 / master-display=G(13250,34500)B(7500,3000)R(34000,16000)WP(15635,16450)L(10000000,1) / max-cll=1000,114 / min-luma=0 / max-luma=1023 / log2-max-poc-lsb=8 / vui-timing-info / vui-hrd-info / slices=1 / no-opt-qp-pps / no-opt-ref-list-length-pps / no-multi-pass-opt-rps / scenecut-bias=0.05 / no-opt-cu-delta-qp / no-aq-motion / hdr / hdr-opt / no-dhdr10-opt / no-idr-recovery-sei / analysis-reuse-level=5 / scale-factor=0 / refine-intra=0 / refine-inter=0 / refine-mv=0 / refine-ctu-distortion=0 / no-limit-sao / ctu-info=0 / no-lowpass-dct / refine-analysis-type=0 / copy-pic=1 / max-ausize-factor=1.0 / no-dynamic-refine / no-single-sei / no-hevc-aq / no-svt / qp-adaptation-range=1.00
Language : English
Default : Yes
Forced : No
Color range : Limited
Color primaries : BT.2020
Transfer characteristics : PQ
Matrix coefficients : BT.2020 non-constant
Mastering display color primaries : Display P3
Mastering display luminance : min: 0.0001 cd/m2, max: 1000 cd/m2
Maximum Content Light Level : 1000 cd/m2
Maximum Frame-Average Light Level : 114 cd/m2

Audio #1
ID : 2
Format : AC-3
Format/Info : Audio Coding 3
Commercial name : Dolby Digital
Codec ID : A_AC3
Duration : 2 h 5 min
Bit rate mode : Constant
Bit rate : 192 kb/s
Channel(s) : 2 channels
Channel layout : L R
Sampling rate : 48.0 kHz
Frame rate : 31.250 FPS (1536 SPF)
Bit depth : 16 bits
Compression mode : Lossy
Stream size : 172 MiB (1%)
Title : Dub [Ledoyen]
Language : Ukrainian
Service kind : Complete Main
Default : Yes
Forced : No

Audio #2
ID : 3
Format : AC-3
Format/Info : Audio Coding 3
Commercial name : Dolby Digital
Codec ID : A_AC3
Duration : 2 h 3 min
Bit rate mode : Constant
Bit rate : 640 kb/s
Channel(s) : 6 channels
Channel layout : L R C LFE Ls Rs
Sampling rate : 48.0 kHz
Frame rate : 31.250 FPS (1536 SPF)
Bit depth : 16 bits
Compression mode : Lossy
Stream size : 567 MiB (3%)
Language : English
Service kind : Complete Main
Default : No
Forced : No

Text #1
ID : 4
Format : UTF-8
Codec ID : S_TEXT/UTF8
Codec ID/Info : UTF-8 Plain Text
Duration : 1 h 56 min
Bit rate : 2 b/s
Count of elements : 22
Stream size : 1.78 KiB (0%)
Title : Forced
Language : Ukrainian
Default : Yes
Forced : Yes

Text #2
ID : 5
Format : UTF-8
Codec ID : S_TEXT/UTF8
Codec ID/Info : UTF-8 Plain Text
Duration : 1 h 56 min
Bit rate : 74 b/s
Count of elements : 1161
Stream size : 63.1 KiB (0%)
Title : Full
Language : Ukrainian
Default : No
Forced : No

Text #3
ID : 6
Format : UTF-8
Codec ID : S_TEXT/UTF8
Codec ID/Info : UTF-8 Plain Text
Duration : 1 h 53 min
Bit rate : 42 b/s
Count of elements : 1127
Stream size : 35.0 KiB (0%)
Title : full
Language : English
Default : No
Forced : No

Text #4
ID : 7
Format : UTF-8
Codec ID : S_TEXT/UTF8
Codec ID/Info : UTF-8 Plain Text
Duration : 2 h 3 min
Bit rate : 47 b/s
Count of elements : 1624
Stream size : 43.3 KiB (0%)
Title : SDH
Language : English
Default : No
Forced : No

Menu
00:00:00.000 : :Chapter 01
00:06:10.536 : :Chapter 02
00:10:38.679 : :Chapter 03
00:16:07.091 : :Chapter 04
00:21:06.098 : :Chapter 05
00:24:59.206 : :Chapter 06
00:30:21.736 : :Chapter 07
00:39:02.840 : :Chapter 08
00:44:19.740 : :Chapter 09
00:51:17.991 : :Chapter 10
01:00:02.599 : :Chapter 11
01:04:18.855 : :Chapter 12
01:12:19.585 : :Chapter 13
01:18:06.973 : :Chapter 14
01:26:53.625 : :Chapter 15
01:31:19.474 : :Chapter 16
01:38:32.781 : :Chapter 17
01:42:30.185 : :Chapter 18
01:51:35.689 : :Chapter 19
01:56:53.256 : :Chapter 20
Скріншоти:






Джерело: &


 Трекер:    Зареєстрований   

Завантажити / скачати фільм українською



відео для новачків



 Зареєстрований:   2019-05-30 18:14
 Розмір:   18.57 GB 
 Оцінка фільму:   9.8/10 (Голосів: 6)
   
Ваш часовий пояс: GMT + 2 Години

Нова тема   Відповісти