Швидкий вогонь / Rapid Fire (1992) Remux 1080p 2хUkr/Eng | Sub Eng

Нові коментарі

Нова тема   Відповісти
Автор Повідомлення
MakRA 
VIP


З нами з: 11.11.18
Востаннє: 11.08.20
Повідомлень: 1091

2019-05-30 00:12  
Швидкий вогонь / Rapid Fire (1992) Remux 1080p 2хUkr/Eng | Sub Eng

Швидкий вогонь / Rapid Fire (1992) Remux 1080p 2хUkr/Eng | Sub Eng


Український постер:



Жанр: екшн, кримінальний, драма
Країна: США



Кінокомпанія: Twentieth Century Fox Film Corporation
Режисер: Двайт Літтл [Dwight H. Little]
Актори: Брендон Лі [Brandon Lee], Пауерс Бут [Powers Boothe], Нік Манкузо [Nick Mancuso], Реймонд Дж. Беррі [Raymond J. Barry], Кейт Ходж [Kate Hodge], Ци Ма [Tzi Ma], Тоні Лонго [Tony Longo], Майкл Пол Чан [ Michael Paul Chan], Дастін Нгуен [Dustin Nguyen], Бриджитта Штенберг [Brigitta Stenberg].

Сюжет:
Студент-байкер Джейк Ло стає свідком жорстокого вбивства. Не думаючи про те, хто стоїть за спиною вбивць, він погоджується свідчити в суді, і тут же чиїсь люди під виглядом агентів ФБР намагаються прибрати його. Ледве вислизнувши від лже-агентів, Джейк виявляється в центрі ураганної сутички за його голову.

ФБР, наркобарони, друзі, вороги — все змішалося, і невідомо, хто несе смерть, а хто — допомога. Тут можуть врятувати тільки інстинкти. І інстинкт підказує, що єдиний, кому можна вірити — офіцер поліції Райан. Але єдине, що може запропонувати Райан — зіграти підсадну качку в його полюванні.


Тривалість: 01:35:13
Якість: Remux 1080p
Відео:
кодек:
розмір кадру: 1920 х 1080
бітрейт: 29.9 Mб/с

Аудіо # 1:
мова: українська
переклад: двоголосий закадровий
кодек: 2.0
бітрейт: 192 кб/с

Аудіо # 2:
мова: українська
переклад: багатоголосий закадровий
кодек: 2.0
бітрейт: 192 кб/с

Аудіо # 3:
мова: англійська
переклад: оригінал
кодек: -HD MA 2.0
бітрейт: 2124 кб/с

Аудіо # 4:
мова: англійська
переклад: оригінал
кодек: 2.0
бітрейт: 192 кб/с

Аудіо # 5:
мова: англійська
переклад: оригінал | music tracks (без діалогів)
кодек: -HD MA 2.0
бітрейт: 1924 кб/с

Аудіо # 6:
мова: англійська
переклад: оригінал | коментарі композитора Крістофера Янга та кінознавця Ніка Редмана
кодек: -HD MA 2.0
бітрейт: 2098 кб/с

Субтитри # 1: (Full)
мова: англійська
тип: програмні (м'які)
формат: *.srt

Субтитри # 2: (SDH)
мова: англійська
тип: пререндерні
формат: *.pgs
Збережено оригінальні розділи, як на Blu-ray.
Info
General
Unique ID : 308058465196363808407735005391727140608 (0xE7C1E6FB73E9C59E360F1D3F65E09F00)
Complete name : E:\+Фільмографії-Брендон Лі\Rapid Fire (1992) Remux 1080p 2хUkrEng Sub Eng [Hurtom].
Format :
Format version : Version 4 / Version 2
File size : 24.4 GiB
Duration : 1 h 35 min
Overall bit rate mode : Variable
Overall bit rate : 36.6 Mb/s
Movie name : Швидкий вогонь / Rapid Fire (1992) Remux 1080p 2хUkr/Eng | Sub Eng [Hurtom]
Encoded date : UTC 2019-05-29 18:28:09
Writing application : v25.0.0 ('Prog Noir') 64-bit
Writing library : libebml v1.3.6 + v1.4.9

Video
ID : 1
Format : AVC
Format/Info : Advanced Video Codec
Format profile : [email protected]
Format settings, CABAC : Yes
Format settings, RefFrames : 4 frames
Codec ID : V_MPEG4/ISO/AVC
Duration : 1 h 35 min
Bit rate mode : Variable
Bit rate : 29.9 Mb/s
Maximum bit rate : 35.0 Mb/s
Width : 1 920 pixels
Height : 1 080 pixels
Display aspect ratio : 16:9
Frame rate mode : Constant
Frame rate : 23.976 (24000/1001) FPS
Color space : YUV
Chroma subsampling : 4:2:0
Bit depth : 8 bits
Scan type : Progressive
Bits/(Pixel*Frame) : 0.601
Stream size : 19.9 GiB (82%)
Title : Rapid Fire (1992) Remux 1080p 2хUkr/Eng | Sub Eng [Hurtom]
Language : Ukrainian
Default : Yes
Forced : Yes

Audio #1
ID : 2
Format : AC-3
Format/Info : Audio Coding 3
Format settings, Endianness : Big
Codec ID : A_AC3
Duration : 1 h 35 min
Bit rate mode : Constant
Bit rate : 192 kb/s
Channel(s) : 2 channels
Channel positions : Front: L R
Sampling rate : 48.0 kHz
Frame rate : 31.250 FPS (1536 SPF)
Bit depth : 16 bits
Compression mode : Lossy
Stream size : 131 MiB (1%)
Title : DVO [1+1] [2+2]
Language : Ukrainian
Service kind : Complete Main
Default : Yes
Forced : Yes

Audio #2
ID : 3
Format : AC-3
Format/Info : Audio Coding 3
Format settings, Endianness : Big
Codec ID : A_AC3
Duration : 1 h 35 min
Bit rate mode : Constant
Bit rate : 192 kb/s
Channel(s) : 2 channels
Channel positions : Front: L R
Sampling rate : 48.0 kHz
Frame rate : 31.250 FPS (1536 SPF)
Bit depth : 16 bits
Compression mode : Lossy
Stream size : 131 MiB (1%)
Title : MVO [ICTV])
Language : Ukrainian
Service kind : Complete Main
Default : No
Forced : No

Audio #3
ID : 4
Format :
Format/Info : Digital Theater Systems
Format profile : MA / Core
Mode : 16
Format settings, Endianness : Big
Codec ID : A_DTS
Duration : 1 h 35 min
Bit rate mode : Variable / Constant
Bit rate : 2 124 kb/s / 1 509 kb/s
Channel(s) : 2 channels
Channel positions : Front: L R
Sampling rate : 48.0 kHz
Frame rate : 93.750 FPS (512 SPF)
Bit depth : 24 bits
Compression mode : Lossless / Lossy
Stream size : 1.41 GiB (6%)
Title : Original -HD MA 2.0
Language : English
Default : No
Forced : No

Audio #4
ID : 5
Format : AC-3
Format/Info : Audio Coding 3
Mode : Dolby Digital
Format settings, Endianness : Big
Codec ID : A_AC3
Duration : 1 h 31 min
Bit rate mode : Constant
Bit rate : 192 kb/s
Channel(s) : 2 channels
Channel positions : Front: L R
Sampling rate : 48.0 kHz
Frame rate : 31.250 FPS (1536 SPF)
Bit depth : 16 bits
Compression mode : Lossy
Stream size : 125 MiB (1%)
Title : Original 2.0
Language : English
Service kind : Complete Main
Default : No
Forced : No

Audio #5
ID : 6
Format :
Format/Info : Digital Theater Systems
Format profile : MA / Core
Mode : 16
Format settings, Endianness : Big
Codec ID : A_DTS
Duration : 1 h 35 min
Bit rate mode : Variable / Constant
Bit rate : 1 920 kb/s / 1 509 kb/s
Channel(s) : 2 channels
Channel positions : Front: L R
Sampling rate : 48.0 kHz
Frame rate : 93.750 FPS (512 SPF)
Bit depth : 24 bits
Compression mode : Lossless / Lossy
Stream size : 1.28 GiB (5%)
Title : Original -HD MA 2.0 | Isolated Music Track
Language : English
Default : No
Forced : No

Audio #6
ID : 7
Format :
Format/Info : Digital Theater Systems
Format profile : MA / Core
Mode : 16
Format settings, Endianness : Big
Codec ID : A_DTS
Duration : 1 h 35 min
Bit rate mode : Variable / Constant
Bit rate : 2 098 kb/s / 1 509 kb/s
Channel(s) : 2 channels
Channel positions : Front: L R
Sampling rate : 48.0 kHz
Frame rate : 93.750 FPS (512 SPF)
Bit depth : 24 bits
Compression mode : Lossless / Lossy
Stream size : 1.40 GiB (6%)
Title : Original -HD MA 2.0 | Audio Commentary with Composer Christopher Young and Film Historian Nick Redman
Language : English
Default : No
Forced : No

Text #1
ID : 8
Format : UTF-8
Codec ID : S_TEXT/UTF8
Codec ID/Info : UTF-8 Plain Text
Duration : 1 h 32 min
Bit rate : 47 b/s
Count of elements : 1094
Stream size : 32.5 KiB (0%)
Title : Eng (Full)
Language : English
Default : No
Forced : No

Text #2
ID : 9
Format : PGS
Muxing mode : zlib
Codec ID : S_HDMV/PGS
Codec ID/Info : Picture based subtitle format used on BDs/HD-DVDs
Duration : 1 h 32 min
Bit rate : 37.2 kb/s
Count of elements : 2200
Stream size : 24.7 MiB (0%)
Title : Eng (SDH)
Language : English
Default : No
Forced : No

Menu
00:00:00.000 : en:Main Titles: Serrano's Arrival
00:03:51.982 : en:Push Comes to Shove
00:07:57.477 : en:The Rally; Jake's Flashback
00:11:59.093 : en:Life Study
00:15:47.613 : en:Date and Switch
00:20:51.792 : en:Massacre at the Meeting
00:24:02.733 : en:Escape and Arrest
00:26:50.901 : en:Prize Witness
00:31:42.025 : en:Chicago: Ryan, Farris and Withers
00:37:58.610 : en:No Safehouse
00:39:36.207 : en:Who Do You Trust?
00:43:45.456 : en:Dropping in on Frank
00:47:26.927 : en:The Set-up
00:50:03.751 : en:A Talk with Withers
00:55:01.048 : en:The Delivery
01:00:34.881 : en:Nice Doin' Business with Ya
01:03:10.704 : en:Aftermath
01:07:32.048 : en:Love and Death
01:11:23.362 : en:Jake Undercover
01:15:33.070 : en:Captured; Jake to the Rescue
01:20:46.759 : en:A Worthy Adversary
01:23:49.900 : en:Tau's Escape
01:27:22.404 : en:Battle on the Tracks
01:30:50.570 : en:Going After Ryan
Скріншоти
Джерело: &
За українські доріжки подяка п. SweetN, п. robotron005.
За постер подяка п. Тирік
Особиста оцінка: 10 - без зайвих вагань рекомендую всім!



Золотий реліз (завантажене не впливає на рейтинг)
 Трекер:    Зареєстрований   

Завантажити / скачати фільм українською



відео для новачків



 Зареєстрований:   2019-05-30 00:12
 Розмір:   24.35 GB 
 Оцінка фільму:   9.8/10 (Голосів: 4)
   
Інші релізи
Ваш часовий пояс: GMT + 2 Години

Нова тема   Відповісти