Скляний будинок / The Glass House (2001) 720p Ukr/Eng | Sub Eng

Нові коментарі

Нова тема   Відповісти
Автор Повідомлення
Anonymous 







2019-05-29 19:27  
Скляний будинок / The Glass House (2001) 720p Ukr/Eng | Sub Eng

Скляний будинок / The Glass House (2001) 720p Ukr/Eng | Sub Eng


Жанр: трилер
Країна: США



Кінокомпанія: Columbia Pictures Corporation, Original Film
Режисер: Деніел Сакхейм / Daniel Sackheim
Актори: Лілі Собескі / Leelee Sobieski, Дайан Лейн / Diane Lane, Стеллан Скарсґард / Stellan Skarsgаrd, Брюс Дерн / Bruce Dern, Кеті Бейкер / Kathy Baker, Тревор Морґан / Trevor Morgan, Кріс Нот / Chris Noth та інші

Сюжет:
Після загибелі батьків підлітків Рубі і Ретта взяли до себе жити кращі друзі покійних - бездітні Ерін і Террі Гласс , господарі найрозкішнішого будинку в Малібу . Химерна будівля зі скляними стінами відтепер мала стати їм будинком. Але не стала. Дуже скоро уважна Рубі відкриває , що цей шедевр архітектури приховує в собі якусь страшну таємницю. І що їх нові тато з мамою - зовсім не такі добрі і симпатичні люди , якими здаються.
У цих стінах зі скла бродить смерть. Варто забаритися - і вона наздожене Рубі і Ретта , як наздогнала їх батьків. Єдиний спосіб уникнути загибелі - розкрити зловісний секрет, що ховають у своїх холодних серцях такі милі на вигляд Ерін і Террі Гласс...


Тривалість: 01:46:18
Якість: 720p
Відео:
кодек:
розмір кадру: 1280x720
бітрейт: 3841 кб/с

Аудіо # 1:
мова: українська
переклад: багатоголосий закадровий
кодек: 2.0
бітрейт: 192 кб/с

Аудіо # 2:
мова: англійська
переклад: оригінал
кодек: 5.1
бітрейт: 448 кб/с

Субтитри:
мова: англійська
тип: програмні (м'які)
формат: *.srt
Info
General
Unique ID : 249441376459295533301200348262144102054 (0xBBA8A960883674EE8C6A73C3A72B4EA6)
Format :
Format version : Version 4
File size : 3.41 GiB
Duration : 1 h 46 min
Overall bit rate : 4 589 kb/s
Encoded date : UTC 2019-05-29 16:18:40
Writing application : v6.1.0 ('Old Devil') built on Mar 4 2013 09:10:42
Writing library : libebml v1.3.0 + v1.4.0

Video
ID : 1
Format : AVC
Format/Info : Advanced Video Codec
Format profile : [email protected]
Format settings : 2 Ref Frames
Format settings, CABAC : No
Format settings, RefFrames : 2 frames
Codec ID : V_MPEG4/ISO/AVC
Duration : 1 h 46 min
Bit rate : 3 858 kb/s
Width : 1 280 pixels
Height : 720 pixels
Display aspect ratio : 16:9
Frame rate mode : Constant
Frame rate : 23.976 FPS
Color space : YUV
Chroma subsampling : 4:2:0
Bit depth : 8 bits
Scan type : Progressive
Bits/(Pixel*Frame) : 0.175
Stream size : 2.86 GiB (84%)
Language : English
Default : Yes
Forced : No
Color range : Limited
Color primaries : BT.709
Transfer characteristics : BT.709
Matrix coefficients : BT.709

Audio #1
ID : 2
Format : AC-3
Format/Info : Audio Coding 3
Commercial name : Dolby Digital
Codec ID : A_AC3
Duration : 1 h 46 min
Bit rate mode : Constant
Bit rate : 192 kb/s
Channel(s) : 2 channels
Channel layout : L R
Sampling rate : 48.0 kHz
Frame rate : 31.250 FPS (1536 SPF)
Bit depth : 16 bits
Compression mode : Lossy
Stream size : 146 MiB (4%)
Title : UKR (Ukraine)
Service kind : Complete Main
Default : Yes
Forced : No

Audio #2
ID : 3
Format : AC-3
Format/Info : Audio Coding 3
Commercial name : Dolby Digital
Codec ID : A_AC3
Duration : 1 h 46 min
Bit rate mode : Constant
Bit rate : 448 kb/s
Channel(s) : 6 channels
Channel layout : L R C LFE Ls Rs
Sampling rate : 48.0 kHz
Frame rate : 31.250 FPS (1536 SPF)
Bit depth : 16 bits
Compression mode : Lossy
Stream size : 341 MiB (10%)
Language : English
Service kind : Complete Main
Default : No
Forced : No

Text
ID : 4
Format : UTF-8
Codec ID : S_TEXT/UTF8
Codec ID/Info : UTF-8 Plain Text
Language : English
Default : No
Forced : No

Menu
00:00:00.000 : en:Start
00:04:38.000 : en:"Your Parents Are Dead"
00:06:01.000 : en:Remembering Dave & Grace
00:08:19.000 : en:Uncle Jack
00:09:49.000 : en:Alan Begleiter
00:13:51.000 : en:The Grand Tour
00:16:10.000 : en:Night Watch
00:17:58.000 : en:Middle-Of-The-Year New
00:22:24.000 : en:3am Swim
00:27:00.000 : en:Voices In The Night
00:29:37.000 : en:A Lonely Man
00:32:48.000 : en:Baked
00:33:46.000 : en:A Real Disturbing Visit
00:40:33.000 : en:Business Glitch
00:45:10.000 : en:Hamlet Helper
00:50:50.000 : en:Routine Site Inspection
00:56:02.000 : en:Wide Awake & Wondering
01:04:03.000 : en:The Great Escape
01:09:33.000 : en:"You Killed My Parents"
01:11:42.000 : en:Ruby's Tantrum
01:14:12.000 : en:Trust Bust
01:17:20.000 : en:Erin Loses Her License
01:19:09.000 : en:One Way Out
01:25:03.000 : en:Baiting The Trap
01:28:37.000 : en:Broken Trust
01:29:35.000 : en:Terry & The Pirates
01:31:55.000 : en:Shattered Glass
01:36:44.000 : en:Road Kill
Скріншоти






За українську доріжку подяка п.: ratbol, voin747
Особиста подяка пану denixx за надану матеріальну допомогу на підтримку цього і майбутніх релізів.
Джерело:


Срібний реліз (на рейтинг впливає 50% завантаженого)
 Трекер:    Зареєстрований   

Завантажити / скачати фільм українською



відео для новачків



 Зареєстрований:   2019-05-29 19:27
 Розмір:   3.41 GB 
 Оцінка фільму:   9.4/10 (Голосів: 5)
   
Інші релізи
   Скляний будинок / The Glass House (2001) 1080p Ukr/Eng | Sub Eng -Star-Lord-  1 / 0   9.98 GB   2019-12-17 15:33 
   Скляний будинок / The Glass House (2001) patriot2305  3 / 0   1.67 GB   2013-11-17 16:29 
Ваш часовий пояс: GMT + 2 Години

Нова тема   Відповісти