В полоні у перевертня (Серії 1-4) (2019) 1080p

Нові коментарі

Нова тема   Відповісти
Автор Повідомлення
ak1980 
Новенький


З нами з: 06.07.14
Востаннє: 16.06.19
Повідомлень: 11

2019-05-27 18:30  
В полоні у перевертня (Серії 1-4) (2019) 1080p



Жанр: бойовик
Країна: Україна

Кінокомпанія: ictv
Режисер: Віталій Ващенко
Актори: Дмитро Сова, Анна Кошмал, Костянтин Войтенко, Євген Капорін, Анатолій Хостікоєв, Наталя Сумська, Тетяна Зіновенко, Юрій Горбунов, Олена Стефанська, Марк Дробот, Володимир Задніпровський

Сюжет:
Головні герої - троє друзів, які повинні пішки перенести через румунський кордон секретний вантаж. Ставки великі, оскільки сім'я одного з героїв знаходиться у заручників. І, звичайно, шлях через кордон не легкий. За вантажем ведеться запекла полювання, але залишається невідомим, що ж в посилці? Чи впораються з натиском ворогів герої фільму?

Тривалість: 1 серія: ~ 00:42:00 (цілком серій: 4)

Якість: 1080p

Відео:
кодек:
розмір кадру: 1920 х 1080
бітрейт: ~ 2100 кб/с

Аудіо:
мова: українська
переклад: оригінал
кодек: 2.0
бітрейт: 128 кб/с
"Info:"

Complete name : E:\V_Poloni_U_Perevertnya\01. seriya.mp4
Format : MPEG-4
Format profile : Base Media
Codec ID : isom (isom/iso2/avc1/mp41)
File size : 672 MiB
Duration : 42 min 4 s
Overall bit rate : 2 234 kb/s
Writing application : Lavf57.2.100

Video
ID : 1
Format : AVC
Format/Info : Advanced Video Codec
Format profile : [email protected]
Format settings : CABAC / 3 Ref Frames
Format settings, CABAC : Yes
Format settings, RefFrames : 3 frames
Codec ID : avc1
Codec ID/Info : Advanced Video Coding
Duration : 42 min 4 s
Bit rate : 2 100 kb/s
Width : 1 920 pixels
Height : 1 080 pixels
Display aspect ratio : 16:9
Frame rate mode : Constant
Frame rate : 25.000 FPS
Color space : YUV
Chroma subsampling : 4:2:0
Bit depth : 8 bits
Scan type : Progressive
Bits/(Pixel*Frame) : 0.041
Stream size : 632 MiB (94%)
Writing library : core 155 r2901 7d0ff22
Color range : Limited
Color primaries : BT.709
Transfer characteristics : BT.709
Matrix coefficients : BT.709

Audio
ID : 2
Format :
Format/Info : Advanced Audio Codec
Format profile : LC
Codec ID : mp4a-40-2
Duration : 42 min 4 s
Bit rate mode : Constant
Bit rate : 128 kb/s
Channel(s) : 2 channels
Channel positions : Front: L R
Sampling rate : 44.1 kHz
Frame rate : 43.066 FPS (1024 SPF)
Compression mode : Lossy
Stream size : 38.5 MiB (6%)
Default : Yes
Alternate group : 1
"Скріншоти:"



Золотий реліз (завантажене не впливає на рейтинг)
 Трекер:    Зареєстрований   

Завантажити / скачати український серіал



відео для новачків



 Зареєстрований:   2019-05-27 18:30
 Розмір:   2.55 GB 
 Оцінка серіалу:   7.8/10 (Голосів: 6)
   
munipet 
VIP


З нами з: 14.04.11
Востаннє: 16.06.19
Повідомлень: 252

2019-05-29 03:01  
ФІльм депресивний такий ,дивишся і ніби дивишся якийсь російський серіал (хоч я їх не дивлюсь) але затягує до перегляду
dvorsky 
Відео Гуртом - запис з ТБ
Відео Гуртом - запис з ТБ


З нами з: 20.12.07
Востаннє: 16.06.19
Повідомлень: 241

2019-05-29 21:44  
Актори: ???
Camomile_crazzy 
Новенький


З нами з: 19.07.12
Востаннє: 17.06.19
Повідомлень: 22

2019-05-30 09:38  
ak1980 написано:
знаходиться у заручників

заручниКАХ.

ak1980 написано:
За вантажем ведеться запекла полювання

запеклЕ

pvm65 
Свій


З нами з: 02.01.16
Востаннє: 17.06.19
Повідомлень: 87

2019-06-11 02:20  
Дійсно українською?
jaral 
Відео Гуртом - підтримка та поширення
Відео Гуртом - підтримка та поширення


З нами з: 18.10.07
Востаннє: 14.06.19
Повідомлень: 783

2019-06-11 22:27  
pvm65
pvm65 написано:
Дійсно українською?
Так, дійсно українською!

Ніби то, всі звуки, навіть репліки, звучать українською. Місцями можна почути русизми, неправильне наголошення слів, нехтування кличним відмінком та звертальними формами, які притаманні українській мові.

Ваш часовий пояс: GMT + 2 Години

Нова тема   Відповісти