Орвіл (Сезон 2) / The Orville (Season 2) (2018) 1080p Ukr/Eng | Sub Eng

Нові коментарі

Нова тема   Відповісти
Автор Повідомлення
Argentum 
VIP


З нами з: 25.09.11
Востаннє: 01.12.20
Повідомлень: 262

2019-05-27 17:09  
Орвіл (Сезон 2) / The Orville (Season 2) (2018) 1080p Ukr/Eng | Sub Eng

Орвіл (Сезон 2) / The Orville (Season 2) (2018) 1080p Ukr/Eng | Sub Eng


Жанр: фантастика, драма, комедія
Країна: США



Кінокомпанія: Fuzzy Door Productions, 20th Century Fox Television / Fox
Режисер: Сет Макфарлейн
Актори: Сет Макфарлейн, Едріан Палікі, Пенні Джонсон Джеральд, Скот Ґраймс, Пітер Макон, Гелстон Сейдж, Джей Лі, Марк Джексон, Джессіка Зор та інші.

Сюжет:
Ед Мерсер повертається додому і застає свою дружину з блакитношкірим прибульцем в ліжку, після чого відразу йде і подає на розлучення. Через рік він отримує призначення на корабель середнього класу «Орвіл». В пілоти бере відстороненого від польотів друга. Знайомиться з командою і відправляється зі своєю першою місією на дослідницьку станцію. На його подив, в старпоми він отримує свою колишню дружину. Втім, вона вписується в колектив і допомагає у важку хвилину


Тривалість: 1 серія: 48:00 (цілком серій: 14)
Перелік серій
2x01. Ja'loja
2x02. Primal Urges
2x03. Home
2x04. Nothing Left on Earth Excepting Fishes
2x05. All the World Is Birthday Cake
2x06. A Happy Refrain
2x07. Deflectors
2x08. Identity, Part I
2x09. Identity, Part II
2x10. Blood of Patriots
2x11. Lasting Impressions
2x12. Sanctuary
2x13. Tomorrow and Tomorrow and Tomorrow
2x14. The Road Not Taken
Якість: 1080p
Відео:
кодек:
розмір кадру: 1920 х 1080
бітрейт: 7300 - 10300 кб/с

Аудіо # 1:
мова: українська
переклад: багатоголосий закадровий
кодек: 5.1/*2.0
бітрейт: 384/*192 кб/с
* починаючи з 11ї серії.

Аудіо # 2:
мова: англійська
переклад: оригінал
кодек: 5.1
бітрейт: 640 кб/с

Субтитри:
мова: англійська
тип: програмні (м'які)
формат: *.srt
Info
General
Unique ID : 137353836377936532158351170980147725982 (0x675562FB35F9E071AEC736129B59869E)
Complete name : The Orville. Season 02 (2018) [Ukr,Eng] 1080p [Hurtom]\The Orville. S02E01 (2018) [Ukr,Eng] 1080p [Hurtom].
Format :
Format version : Version 4
File size : 2.84 GiB
Duration : 48 min 25 s
Overall bit rate : 8 401 kb/s
Movie name : 2x01. Ja'loja
Encoded date : UTC 2019-05-27 16:40:40
Writing application : v34.0.0 ('Sight and Seen') 64-bit
Writing library : libebml v1.3.7 + v1.5.0

Video
ID : 1
Format : AVC
Format/Info : Advanced Video Codec
Format profile : [email protected]
Format settings : CABAC / 4 Ref Frames
Format settings, CABAC : Yes
Format settings, Reference : 4 frames
Codec ID : V_MPEG4/ISO/AVC
Duration : 48 min 25 s
Bit rate : 7 374 kb/s
Width : 1 920 pixels
Height : 1 080 pixels
Display aspect ratio : 16:9
Frame rate mode : Constant
Frame rate : 23.976 (24000/1001) FPS
Color space : YUV
Chroma subsampling : 4:2:0
Bit depth : 8 bits
Scan type : Progressive
Bits/(Pixel*Frame) : 0.148
Stream size : 2.49 GiB (88%)
Title : AVC 1920*1080 @ 7 374 kb/s
Language : Multiple languages
Default : Yes
Forced : Yes
Color range : Limited
Color primaries : BT.709
Transfer characteristics : BT.709
Matrix coefficients : BT.709

Audio #1
ID : 2
Format : AC-3
Format/Info : Audio Coding 3
Commercial name : Dolby Digital
Codec ID : A_AC3
Duration : 48 min 25 s
Bit rate mode : Constant
Bit rate : 384 kb/s
Channel(s) : 6 channels
Channel layout : L R C LFE Ls Rs
Sampling rate : 48.0 kHz
Frame rate : 31.250 FPS (1536 SPF)
Bit depth : 16 bits
Compression mode : Lossy
Stream size : 133 MiB (5%)
Title : 5.1 @ 384 kbps # DniproFilm
Language : Ukrainian
Service kind : Complete Main
Default : Yes
Forced : Yes

Audio #2
ID : 3
Format : E-AC-3
Format/Info : Enhanced AC-3
Commercial name : Dolby Digital Plus
Codec ID : A_EAC3
Duration : 48 min 25 s
Bit rate mode : Constant
Bit rate : 640 kb/s
Channel(s) : 6 channels
Channel layout : L R C LFE Ls Rs
Sampling rate : 48.0 kHz
Frame rate : 31.250 FPS (1536 SPF)
Compression mode : Lossy
Delay relative to video : 2 ms
Stream size : 222 MiB (8%)
Title : 5.1 @ 640 kbps
Language : English
Service kind : Complete Main
Default : No
Forced : No

Text
ID : 4
Format : UTF-8
Codec ID : S_TEXT/UTF8
Codec ID/Info : UTF-8 Plain Text
Duration : 48 min 22 s
Bit rate : 95 b/s
Count of elements : 1029
Stream size : 33.9 KiB (0%)
Title : SDH
Language : English
Default : No
Forced : No
Скріншоти







Джерело:

За зведення 1-5 серії подяка пану Anоnymous'у та пану ssTAss'у за 11,12,13,14 серії.

Особиста оцінка: 8 - мені сподобалося



Авторський реліз (завантажувати можна без реєстрації)
 Трекер:    Зареєстрований   

Завантажити / скачати серіал українською



відео для новачків



 Зареєстрований:   2019-05-29 13:55
 Розмір:   47.49 GB 
 Оцінка серіалу:   8.7/10 (Голосів: 10)
   
bot 
робот


З нами з: 30.09.07
Востаннє: 26.05.05
Повідомлень: 26425

2019-05-29 13:55  
Тему перенесено з Анонси релізів до форуму Серіали в HD


Argentum

armogun 
Попереджень: 1
Попереджень: 1 


З нами з: 04.05.13
Востаннє: 29.11.20
Повідомлень: 711

2019-06-02 22:45  
до озвучки Стругачки як до неба. Тисячолітній Айзек мав бути інакшим. Це не наукова фантастика - та всеж. Помітив спробу нав'язати думку в першому сезоні що пряма демократія це зло і вакцинація це добро у цьому.
0mage0 
VIP


З нами з: 06.10.15
Востаннє: 01.12.20
Повідомлень: 709

2019-08-07 12:16  
Дякую за цікавий серіал у гарній якості.
Вжжж Бжжж 
Забанено
Забанено


З нами з: 26.07.19
Востаннє: 06.09.19
Повідомлень: 59

2019-08-08 08:48  
Варто чекати на дубляж нло-тв?
Neytreenor 
Відео Гуртом - запис з ТБ
Відео Гуртом - запис з ТБ


З нами з: 03.04.11
Востаннє: 02.12.20
Повідомлень: 2907

2019-08-08 09:44  
Вжжж Бжжж написано:
Варто чекати на дубляж нло-тв?

Ну, він буде, але невідомо коли. Хоча сам дубляж мабуть вже готов, принаймні є підстави вважати, що акторів вже писали.

Dark Invader 
Модератор відео


З нами з: 06.01.11
Востаннє: 01.12.20
Повідомлень: 3007

2019-08-14 17:21  
Neytreenor написано:
Хоча сам дубляж мабуть вже готов,

Так, дубляж вже завершено. Тепер чекаємо на трансляцію на НЛО TV.

Жовтий Клин 
Забанено
Забанено


З нами з: 15.11.19
Востаннє: 29.11.19
Повідомлень: 24

2019-11-20 21:36  
Є дубляж?
Dark Invader 
Модератор відео


З нами з: 06.01.11
Востаннє: 01.12.20
Повідомлень: 3007

2019-11-20 21:54  
Жовтий Клин написано:
Є дубляж?

Ще немає.

Жока 
Забанено
Забанено


З нами з: 29.11.19
Востаннє: 07.12.19
Повідомлень: 35

2019-12-01 11:22  
Якісь строки появи дубляжу відомі?
Neytreenor 
Відео Гуртом - запис з ТБ
Відео Гуртом - запис з ТБ


З нами з: 03.04.11
Востаннє: 02.12.20
Повідомлень: 2907

2019-12-12 14:22  
Є прогрес - з понеділка повтор першого сезону на НЛО ТБ.

Свято наближається, свято наближається...

Dark Invader 
Модератор відео


З нами з: 06.01.11
Востаннє: 01.12.20
Повідомлень: 3007

2019-12-28 14:16  
З 6-го січня о 23:30 на НЛО TV стартує 2-й сезон. Дочекались. Wide grin
Ваш часовий пояс: GMT + 2 Години

Нова тема   Відповісти