Хулігани Зеленої вулиці / Green Street Hooligans [Open Matte] (2005) 720p 2xUkr/Eng | Sub Eng

Нові коментарі

Нова тема   Відповісти
Автор Повідомлення
Anonymous 







2019-05-27 13:42  
Хулігани Зеленої вулиці / Green Street Hooligans [Open Matte] (2005) 720p 2xUkr/Eng | Sub Eng



Жанр: кримінальний, драма, спорт
Країна: США, Велика Британія



Кінокомпанія: Baker Street, OddLot Entertainment, Yank Film Finance
Режисер: Лексі Александр
Актори: Елайджа Вуд, Чарлі Ганнем, Клер Форлані, Марк Воррен, Лео Ґреґорі, Джофф Белл, Кіран Б'ю, Генрі Ґудмен, Крістофер Гегір, Теренс Джей

Сюжет:
Студент факультету журналістики Метт Бакнер відрахований з Гарварду за злочин, якого він не скоював. Його багатообіцяюча кар'єра пішла коту під хвіст і він у пошуках притулку біжить до Лондона до своєї заміжньої сестри Шеннон. Її чоловік Стів знайомить Метта з своїм молодшим братом Пітом. Здружившись з Пітом, Метт відкриває для себе світ футбольного фанатизму, а також дізнається таємниці та інтриги футбольної фірми. Піт Дангам і його вірні друзі створили Еліту Зеленої вулиці, групу фанатів клубу Вест-Гем Юнайтед, одну з найжорстокіших лондонських футбольних фірм... Тут він знаходить нових друзів, нові неприємності і опиняється в компанії божевільних футбольних фанатів, готових на вівтар своєї пристрасті кинути будь-яку жертву...


Тривалість: 01:48:52
Якість: 720p
Відео:
кодек:
розмір кадру: 1280x720
бітрейт: 9000 кб/с

Аудіо # 1:
мова: українська
переклад: багатоголосий закадровий
кодек: 2.0
бітрейт: 192 кб/с

Інформація про озвучення
Ролі озвучили: Павло Скороходько, Ярослав Чорненький, Анатолій Зіновенко і Анастасія Зіновенко.

Аудіо # 2:
мова: українська
переклад: багатоголосий закадровий
кодек: 2.0
бітрейт: 192 кб/с

Інформація про озвучення
Ролі озвучили: Дмитро Терещук, Євген Пашин та інші.



Аудіо # 3:
мова: англійська
переклад: оригінал
кодек: 5.1
бітрейт: 640 кб/с

Субтитри (SDH, Full) :
мова: англійська
тип: програмні (м'які)
формат: *.srt
Info
Код:
General
Complete name                            : Green Street Hooligans [Open Matte] (2005) 720p [Ukr_Eng] [ViDeO_Hurtom].
Format                                   :
Format version                           : Version 4
File size                                : 7.62 GiB
Duration                                 : 1 h 48 min
Overall bit rate                         : 10.0 Mb/s
Movie name                               : Green Street Hooligans [Open Matte] (2005) 720p [Ukr_Eng] [ViDeO_Hurtom]
Encoded date                             : UTC 2019-05-27 10:24:44
Writing application                      : v30.1.0 ('Forever And More') 64-bit
Writing library                          : libebml v1.3.6 + v1.4.9

Video
ID                                       : 1
Format                                   : AVC
Format/Info                              : Advanced Video Codec
Format profile                           : [email protected]
Format settings                          : CABAC / 9 Ref Frames
Format settings, CABAC                   : Yes
Format settings, RefFrames               : 9 frames
Codec ID                                 : V_MPEG4/ISO/AVC
Duration                                 : 1 h 48 min
Bit rate                                 : 9 000 kb/s
Width                                    : 1 280 pixels
Height                                   : 720 pixels
Display aspect ratio                     : 16:9
Frame rate mode                          : Constant
Frame rate                               : 23.976 (24000/1001) FPS
Color space                              : YUV
Chroma subsampling                       : 4:2:0
Bit depth                                : 8 bits
Scan type                                : Progressive
Bits/(Pixel*Frame)                       : 0.407
Stream size                              : 6.84 GiB (90%)
Writing library                          : core 148 r2638 7599210
Encoding settings                        : cabac=1 / ref=9 / deblock=1:-1:-1 / analyse=0x3:0x133 / me=umh / subme=11 / psy=1 / psy_rd=1.05:0.00 / mixed_ref=1 / me_range=32 / chroma_me=1 / trellis=2 / 8x8dct=1 / cqm=0 / deadzone=21,11 / fast_pskip=0 / chroma_qp_offset=-2 / threads=12 / lookahead_threads=2 / sliced_threads=0 / nr=0 / decimate=0 / interlaced=0 / bluray_compat=0 / constrained_intra=0 / bframes=8 / b_pyramid=2 / b_adapt=2 / b_bias=0 / direct=3 / weightb=1 / open_gop=0 / weightp=2 / keyint=240 / keyint_min=23 / scenecut=40 / intra_refresh=0 / rc_lookahead=60 / rc=2pass / mbtree=0 / bitrate=9000 / ratetol=1.0 / qcomp=0.70 / qpmin=10 / qpmax=51 / qpstep=4 / cplxblur=20.0 / qblur=0.5 / vbv_maxrate=62500 / vbv_bufsize=78125 / nal_hrd=none / filler=0 / ip_ratio=1.40 / pb_ratio=1.20 / aq=3:0.85
Language                                 : English
Default                                  : Yes
Forced                                   : No

Audio #1
ID                                       : 2
Format                                   : AC-3
Format/Info                              : Audio Coding 3
Commercial name                          : Dolby Digital
Codec ID                                 : A_AC3
Duration                                 : 1 h 48 min
Bit rate mode                            : Constant
Bit rate                                 : 192 kb/s
Channel(s)                               : 2 channels
Channel layout                           : L R
Sampling rate                            : 48.0 kHz
Frame rate                               : 31.250 FPS (1536 SPF)
Bit depth                                : 16 bits
Compression mode                         : Lossy
Stream size                              : 149 MiB (2%)
Title                                    : НЛО.TV | , 2 ch, 192 Кбт/с
Language                                 : Ukrainian
Service kind                             : Complete Main
Default                                  : Yes
Forced                                   : No

Audio #2
ID                                       : 3
Format                                   : AC-3
Format/Info                              : Audio Coding 3
Commercial name                          : Dolby Digital
Codec ID                                 : A_AC3
Duration                                 : 1 h 48 min
Bit rate mode                            : Constant
Bit rate                                 : 192 kb/s
Channel(s)                               : 2 channels
Channel layout                           : L R
Sampling rate                            : 48.0 kHz
Frame rate                               : 31.250 FPS (1536 SPF)
Bit depth                                : 16 bits
Compression mode                         : Lossy
Stream size                              : 149 MiB (2%)
Title                                    : К1 | , 2 ch, 192 Кбт/с
Language                                 : Ukrainian
Service kind                             : Complete Main
Default                                  : No
Forced                                   : No

Audio #3
ID                                       : 4
Format                                   : AC-3
Format/Info                              : Audio Coding 3
Commercial name                          : Dolby Digital
Codec ID                                 : A_AC3
Duration                                 : 1 h 48 min
Bit rate mode                            : Constant
Bit rate                                 : 640 kb/s
Channel(s)                               : 6 channels
Channel layout                           : L R C LFE Ls Rs
Sampling rate                            : 48.0 kHz
Frame rate                               : 31.250 FPS (1536 SPF)
Bit depth                                : 16 bits
Compression mode                         : Lossy
Stream size                              : 498 MiB (6%)
Title                                    : , 6 ch, 640 Кбт/с
Language                                 : English
Service kind                             : Complete Main
Default                                  : No
Forced                                   : No

Text #1
ID                                       : 5
Format                                   : UTF-8
Codec ID                                 : S_TEXT/UTF8
Codec ID/Info                            : UTF-8 Plain Text
Duration                                 : 1 h 47 min
Bit rate                                 : 67 b/s
Count of elements                        : 1228
Stream size                              : 53.4 KiB (0%)
Title                                    : SDH
Language                                 : English
Default                                  : No
Forced                                   : No

Text #2
ID                                       : 6
Format                                   : UTF-8
Codec ID                                 : S_TEXT/UTF8
Codec ID/Info                            : UTF-8 Plain Text
Duration                                 : 1 h 47 min
Bit rate                                 : 65 b/s
Count of elements                        : 1195
Stream size                              : 51.9 KiB (0%)
Title                                    : Full
Language                                 : English
Default                                  : No
Forced                                   : No

Скріншоти









Подяка пану slavik_v_z за запис Аудіо №1 і пану Romario_O за Аудіо №2.

Дякую Gelios за допомогу в створені реліза


Джерело:


 Трекер:    Зареєстрований   

Завантажити / скачати фільм українською



відео для новачків



 Зареєстрований:   2019-05-27 13:42
 Розмір:   7.62 GB 
 Оцінка фільму:   9.5/10 (Голосів: 8)
   
Nickolassssssss 
VIP


З нами з: 31.05.14
Востаннє: 29.09.20
Повідомлень: 345

2019-05-29 18:41  
Гарний фільм. Проте він не зайде інтелектуалам, оскільки основний напрямок фільму - це кров, "місилово", жорстокість.
lastbreath 
Свій


З нами з: 02.12.15
Востаннє: 27.09.20
Повідомлень: 55

2019-05-30 19:37  
Без образ, але я вважаю навпаки - лише "неінтелектуали" бачитимуть у фільмі кров і місилово, розумін побачать багато інших тем, які піднімає фільм. А місилово - лише фон, за допомогою якого це розказується.
Anonymous 







2020-06-02 21:15  
Історичний фільм
Ваш часовий пояс: GMT + 2 Години

Нова тема   Відповісти