Формула 1. Сезон 2019. Етап 6. Гран-Прі Монако. Гонка (26.05.2019) 720p Ukr/Eng

Нові коментарі

Нова тема   Відповісти
Автор Повідомлення
sergiyko.5 
VIP


З нами з: 25.02.16
Востаннє: 25.10.20
Повідомлень: 3615

2019-05-26 18:44  
Формула 1. Сезон 2019. Етап 6. Гран-Прі Монако. Гонка (26.05.2019) 720p Ukr/Eng

Формула 1. Сезон 2019. Етап 6. Гран-Прі Монако. Гонка (26.05.2019) 720p Ukr/Eng

Жанр: Перегони Формули 1
Країна: Монако
Телеканал: Sky Sport F1 HD
Коментатор: Максим Подзігун

Опис:
Гонка шостого етапу Гран-Прі Монако 2019 року.


Якість:

Відео:кодек: розмір кадру: 1280 х 720 бітрейт: 4840 кб/с
Аудіо 1: мова: українська кодек: MP2 2.0 бітрейт: 192 кб/с
Аудіо 2: мова: англійська кодек: 2.0 бітрейт: 192 кб/с
Тривалість:
02:19:09
Про файл:
General
Unique ID : 133331737060371186105660567747620249894 (0x644EC22CAC950F27EF5A539836402126)
Complete name : G:\Torrents2\SPORT\Formula 1\F1.2019.Race\F1.2019.06.Monaco.Race.720p.HDTV.Ukr.Eng.
Format :
Format version : Version 4
File size : 5.08 GiB
Duration : 2 h 19 min
Overall bit rate : 5 227 kb/s
Encoded date : UTC 2019-05-27 07:07:09
Writing application : v34.0.0 ('Sight and Seen') 64-bit
Writing library : libebml v1.3.7 + v1.5.0

Video
ID : 1
Format : AVC
Format/Info : Advanced Video Codec
Format profile : [email protected]
Format settings : CABAC / 9 Ref Frames
Format settings, CABAC : Yes
Format settings, Reference : 9 frames
Codec ID : V_MPEG4/ISO/AVC
Duration : 2 h 19 min
Bit rate : 4 839 kb/s
Width : 1 280 pixels
Height : 720 pixels
Display aspect ratio : 16:9
Frame rate mode : Constant
Frame rate : 50.000 FPS
Color space : YUV
Chroma subsampling : 4:2:0
Bit depth : 8 bits
Scan type : Progressive
Bits/(Pixel*Frame) : 0.105
Stream size : 4.70 GiB (93%)
Language : English
Default : Yes
Forced : No

Audio #1
ID : 2
Format : MPEG Audio
Format version : Version 1
Format profile : Layer 2
Codec ID : A_MPEG/L2
Codec ID/Hint : MP2
Duration : 2 h 19 min
Bit rate mode : Constant
Bit rate : 192 kb/s
Channel(s) : 2 channels
Sampling rate : 48.0 kHz
Frame rate : 41.667 FPS (1152 SPF)
Compression mode : Lossy
Delay relative to video : 4 ms
Stream size : 191 MiB (4%)
Title : Максим Подзігун
Language : Ukrainian
Default : Yes
Forced : Yes

Audio #2
ID : 3
Format : AC-3
Format/Info : Audio Coding 3
Commercial name : Dolby Digital
Codec ID : A_AC3
Duration : 2 h 19 min
Bit rate mode : Constant
Bit rate : 192 kb/s
Channel(s) : 2 channels
Channel layout : L R
Sampling rate : 48.0 kHz
Frame rate : 31.250 FPS (1536 SPF)
Bit depth : 16 bits
Compression mode : Lossy
Delay relative to video : 16 ms
Stream size : 191 MiB (4%)
Language : English
Service kind : Complete Main
Default : No
Forced : No
Скріншоти:



Зведення: sergiyko


 Трекер:    Зареєстрований   

Завантажити / скачати торрент



відео для новачків



 Зареєстрований:   2019-05-27 09:17
 Розмір:   5.08 GB 
 Оцінка:   9.4/10 (Голосів: 19)
   
dotsslavon 
Новенький


З нами з: 07.08.11
Востаннє: 01.09.20
Повідомлень: 1

2019-05-26 20:38  
Звук з середини гонки відстає.... Ви не врахували що трансляція з "матч та" порізана за рахунок реклами
sergiyko.5 
VIP


З нами з: 25.02.16
Востаннє: 25.10.20
Повідомлень: 3615

2019-05-27 09:18  
Торент оновлено. Відео кращої якості, повна версія запису гонки.
Wooloomooloo3 
Новенький


З нами з: 09.02.17
Востаннє: 11.10.20
Повідомлень: 4

2019-05-27 14:37  
Звук отстает минимум на 5 кругов((

2.1 Спілкуватися іншою мовою, аніж літературною українською; використовувати для написання українських слів іншу абетку, аніж кирилицю

by antik_2008

antik_2008 
Релізер і модератор відео


З нами з: 20.10.08
Востаннє: 25.10.20
Повідомлень: 4204

2019-05-27 15:10  
Wooloomooloo3 написано:
Звук отстает минимум на 5 кругов((

Ви новий торент файл завантажили ?

SMOOTH 
Новенький


З нами з: 21.11.14
Востаннє: 16.10.20
Повідомлень: 8

2019-05-30 01:54  
sergiyko.5
відсутні багато кіл перегонів - приблизно 10 кіл вирізано через рекламу - більше не звантажувати через російськоязикий матч тв - краще через інші канали Євросоюзу там реклами немає

sergiyko.5 
VIP


З нами з: 25.02.16
Востаннє: 25.10.20
Повідомлень: 3615

2019-05-30 07:32  
Не було інших джерел відео на ту хвилину, а пізніше треба було йти на роботу. Так багато порадників, а може візьміть хтось та зробіть краще!? Я через три тижні їду на відпочинок, взагалі не матиму доступу до інтернету.
armogun 
Попереджень: 1
Попереджень: 1 


З нами з: 04.05.13
Востаннє: 23.10.20
Повідомлень: 700

2019-05-30 15:14  
до уваги Е - чемпіонат https://www.youtube.com/watch?v=vlebvRPIIqI

В Данила Бережного навіть фоточка з Ботасом і Ферстапенном в інстаграмі є https://www.instagram.com/danibereznay/
Ото шпала 202 см

https://ru.motorsport.com/f1/news/v-ferarri-zainteresovalis-kibersportom-spustya-dva-goda-posle-starta-f1-esports/4390126/

Ваш часовий пояс: GMT + 2 Години

Нова тема   Відповісти