Я заберу твого мерця / I'll Take Your Dead (2018) 1080p Eng | Sub Ukr

Нові коментарі

Нова тема   Відповісти
Останній раз роздавалося mindphaser2k15 (2020-12-05)
Автор Повідомлення
Chupacabr007 
Свій


З нами з: 07.07.15
Востаннє: 04.12.20
Повідомлень: 94

2019-05-26 12:24  
Я заберу твого мерця / I'll Take Your Dead (2018) 1080p Eng | Sub Ukr

Я заберу твого мерця / I'll Take Your Dead (2018) 1080p Eng | Sub Ukr


Жанр: жахи
Країна: Канада



Кінокомпанія: Black Fawn Films, Breakthrough Entertainment
Режисер: Чад Арчибальд
Актори: Ейдан Девайн, Ава Престон, Джесс Салгуейро, Брендон МакНайт, Майкл Ревентар, Ері Міллен

Сюжет:
Фермер Вільям з дочкою Глорією живе недалеко від міста. Так вийшло, що його будинок став місцем, куди бандити привозять трупи, і завдання Вільяма - змусити тіла зникнути. Глорія вже звикла до заняття тата і навіть вважає, що душі загиблих тепер населяють їх будинок. Але одного разу встановлений порядок порушується несподіваною подією - одна з привезених на утилізацію виявляється ще живою.


Тривалість: 01:25:45
Якість:
Відео:
кодек:
розмір кадру: 1920 х 1080
бітрейт: 5 511 кб/с

Аудіо:
мова: англійська
переклад: оригінал
кодек: E- 5.1
бітрейт: 640 кб/с

Субтитри:
мова: українська
тип: програмні (м'які)
формат: *.srt
переклад: [SubAutumn]
Скріншоти





Info
General
Complete name : D:\SubAutumn\Films\Ill Take Your Dead\Ill Take Your Dead (2018) [Eng Sub.Ukr] 1080p [Hurtom].
Format :
Format version : Version 4 / Version 2
File size : 3.76 GiB
Duration : 1h 25mn
Overall bit rate : 6 276 Kbps
Movie name : Ill Take Your Dead (2018) [Eng Sub.Ukr] 1080p [Hurtom]
Encoded date : UTC 2019-05-26 09:19:47
Writing application : v6.5.0 ('Isn't she lovely') built on Oct 20 2013 12:50:05
Writing library : libebml v1.3.0 + v1.4.1

Video
ID : 1
Format : AVC
Format/Info : Advanced Video Codec
Format profile : [email protected]
Format settings, CABAC : Yes
Format settings, ReFrames : 4 frames
Codec ID : V_MPEG4/ISO/AVC
Duration : 1h 25mn
Bit rate mode : Constant
Bit rate : 5 511 Kbps
Nominal bit rate : 10 000 Kbps
Width : 1 920 pixels
Height : 1 080 pixels
Display aspect ratio : 16:9
Frame rate mode : Constant
Frame rate : 23.976 fps
Color space : YUV
Chroma subsampling : 4:2:0
Bit depth : 8 bits
Scan type : Progressive
Bits/(Pixel*Frame) : 0.111
Stream size : 3.30 GiB (88%)
Language : English
Default : Yes
Forced : No
Color range : Limited
Color primaries : BT.709
Transfer characteristics : BT.709
Matrix coefficients : BT.709

Audio
ID : 2
Format : E-AC-3
Format/Info : Audio Coding 3
Format settings, Endianness : Big
Codec ID : A_EAC3
Duration : 1h 25mn
Bit rate mode : Constant
Bit rate : 640 Kbps
Channel(s) : 6 channels
Channel positions : Front: L C R, Side: L R, LFE
Sampling rate : 48.0 KHz
Compression mode : Lossy
Stream size : 393 MiB (10%)
Title : Ill Take Your Dead (2018) [Eng Sub.Ukr] 1080p [Hurtom]
Language : English
Default : No
Forced : No

Text
ID : 3
Format : UTF-8
Codec ID : S_TEXT/UTF8
Codec ID/Info : UTF-8 Plain Text
Title : Ill Take Your Dead (2018) [Eng Sub.Ukr] 1080p [Hurtom]
Language : Ukrainian
Default : Yes
Forced : No
Джерело:


Золотий реліз (завантажене не впливає на рейтинг)
 Трекер:    Зареєстрований   

Завантажити / скачати фільм українською



відео для новачків



 Зареєстрований:   2019-05-26 12:24
 Розмір:   3.76 GB 
 Оцінка фільму:   10/10 (Голосів: 2)
   
Ваш часовий пояс: GMT + 2 Години

Нова тема   Відповісти