Крикуни. Полювання / Screamers: The Hunting (2009) Remux 1080p Ukr/Eng | Sub Eng

Нові коментарі

Нова тема   Відповісти
Автор Повідомлення
MakRA 
VIP


З нами з: 11.11.18
Востаннє: 24.09.20
Повідомлень: 1120

2019-05-26 12:42  
Крикуни. Полювання / Screamers: The Hunting (2009) Remux 1080p Ukr/Eng | Sub Eng

Крикуни. Полювання / Screamers: The Hunting (2009) Remux 1080p Ukr/Eng | Sub Eng


Жанр: екшн, фантастика, жахи
Країна: Канада



Кінокомпанія: Pope Productions
Режисер: Шелдон Уїлсон [Sheldon Wilson]
Актори: Стівен Амелл [Stephen Amell], Грек Брик [Greg Bryk], Стівен Данн [Stephen Dunn], Лінлі Хол [Lynley Hall], Ленс Хенрііксен [Lance Henriksen], Джина Холден [Gina Holden], Холлі О'Брайен [Holly Uloth], Крістофер Редман [Christopher Redman], Тім Розонов [Tim Rozon], Сара Смолл [Sarah Small]

Сюжет:
Рятувальна команда із Землі, отримавши сигнал SOS, прибуває на планету Сіріус 6-Б, що вважалася мертвою після знищення «крикунів». Дослідники на чолі з лейтенантом Вікторією Бронте швидко знаходять кілька виживших на віддаленому аванпості, але що ще важливіше, вони виявляють, що розвиток роботів досяг страхітливих висот, що дозволяють їм вкрай переконливо приймати людську подобу, а значить, до від'їзду додому доведеться отримати ще чимало неприємних переживань.



Тривалість: 01:34:49
Якість: Remux 1080p
Відео:
кодек: VC-1
розмір кадру: 1920 х 1080
бітрейт: 20.6 Мб/с

Аудіо # 1:
мова: українська
переклад: багатоголосий закадровий
кодек: 2.0
бітрейт: 192 кб/с

Аудіо # 2:
мова: англійська
переклад: оригінал
кодек: -HD MA 5.1
бітрейт: 1983 кб/с

Аудіо # 3:
мова: англійська
переклад: оригінал
кодек: 2.0
бітрейт: 192 кб/с

Субтитри: (Full)
мова: англійська
тип: пререндерні
формат: *.pgs
Info
General
Unique ID : 211752576886227482652731795628092320990 (0x9F4E1017C3FFBD1C7294BC7B4B906CDE)
Complete name : E:\Фантастика, екшн\Screamers (1995-2009). Collection Remux 1080p\Screamers The Hunting (2009) Remux 1080p UkrEng Sub Eng [Hurtom].
Format :
Format version : Version 4 / Version 2
File size : 15.2 GiB
Duration : 1 h 34 min
Overall bit rate : 23.0 Mb/s
Movie name : Крикуни. Полювання / Screamers: The Hunting (2009) Remux 1080p Ukr/Eng | Sub Eng [Hurtom]
Encoded date : UTC 2019-05-25 21:17:29
Writing application : v25.0.0 ('Prog Noir') 64-bit
Writing library : libebml v1.3.6 + v1.4.9

Video
ID : 1
Format : VC-1
Format profile : [email protected]
Codec ID : V_MS/VFW/FOURCC / WVC1
Codec ID/Hint : Microsoft
Duration : 1 h 34 min
Bit rate : 20.6 Mb/s
Width : 1 920 pixels
Height : 1 080 pixels
Display aspect ratio : 16:9
Frame rate mode : Constant
Frame rate : 23.976 (24000/1001) FPS
Color space : YUV
Chroma subsampling : 4:2:0
Bit depth : 8 bits
Scan type : Progressive
Compression mode : Lossy
Bits/(Pixel*Frame) : 0.414
Stream size : 13.6 GiB (90%)
Title : Screamers: The Hunting (2009) Remux 1080p Ukr/Eng | Sub Eng [Hurtom]
Language : Ukrainian
Default : Yes
Forced : Yes

Audio #1
ID : 2
Format : AC-3
Format/Info : Audio Coding 3
Format settings, Endianness : Big
Codec ID : A_AC3
Duration : 1 h 34 min
Bit rate mode : Constant
Bit rate : 192 kb/s
Channel(s) : 2 channels
Channel positions : Front: L R
Sampling rate : 48.0 kHz
Frame rate : 31.250 FPS (1536 SPF)
Bit depth : 16 bits
Compression mode : Lossy
Stream size : 130 MiB (1%)
Title : MVO [ICTV] 2.0
Language : Ukrainian
Service kind : Complete Main
Default : Yes
Forced : Yes

Audio #2
ID : 3
Format :
Format/Info : Digital Theater Systems
Format profile : MA / Core
Mode : 16
Format settings, Endianness : Big
Codec ID : A_DTS
Duration : 1 h 34 min
Bit rate mode : Variable / Constant
Bit rate : 1 983 kb/s / 1 509 kb/s
Channel(s) : 6 channels
Channel positions : Front: L C R, Side: L R, LFE
Sampling rate : 48.0 kHz
Frame rate : 93.750 FPS (512 SPF)
Bit depth : 16 bits
Compression mode : Lossless / Lossy
Delay relative to video : 42 ms
Stream size : 1.31 GiB (9%)
Title : Original -HD MA 5.1
Language : English
Default : No
Forced : No

Audio #3
ID : 4
Format : AC-3
Format/Info : Audio Coding 3
Format settings, Endianness : Big
Codec ID : A_AC3
Duration : 1 h 34 min
Bit rate mode : Constant
Bit rate : 192 kb/s
Channel(s) : 2 channels
Channel positions : Front: L R
Sampling rate : 48.0 kHz
Frame rate : 31.250 FPS (1536 SPF)
Bit depth : 16 bits
Compression mode : Lossy
Stream size : 130 MiB (1%)
Title : Original 2.0
Language : English
Service kind : Complete Main
Default : No
Forced : No

Text
ID : 5
Format : PGS
Muxing mode : zlib
Codec ID : S_HDMV/PGS
Codec ID/Info : Picture based subtitle format used on BDs/HD-DVDs
Duration : 1 h 29 min
Bit rate : 31.3 kb/s
Count of elements : 1906
Stream size : 20.0 MiB (0%)
Title : Eng (Full)
Language : English
Default : No
Forced : No
Скріншоти
Джерело: &
Дякую за запис з ICTV п. Bohdan237, п. Arsenfpu за синхронізацію.
Особиста оцінка: 10 - без зайвих вагань рекомендую всім!



Золотий реліз (завантажене не впливає на рейтинг)
 Трекер:    Зареєстрований   

Завантажити / скачати фільм українською



відео для новачків



 Зареєстрований:   2019-05-26 12:42
 Розмір:   15.2 GB 
 Оцінка фільму:   10/10 (Голосів: 8)
   
Інші релізи
11994455 
Попереджень: 2
Попереджень: 2 


З нами з: 07.04.14
Востаннє: 24.09.20
Повідомлень: 624

2020-06-24 01:45  
Спасибі за реліз - але фільм лайно (у порівнянні з 1 частиною)...
Ваш часовий пояс: GMT + 2 Години

Нова тема   Відповісти