Дорога додому: Неймовірна подорож / Homeward Bound: The Incredible Journey (1993) 2xUkr/Eng

Нові коментарі

Нова тема   Відповісти
Автор Повідомлення
Anonymous 







2019-05-26 12:24  
Дорога додому: Неймовірна подорож / Homeward Bound: The Incredible Journey (1993) 2xUkr/Eng



Жанр: драма, комедія, пригодницький, сімейний
Країна: США



Кінокомпанія: Walt Disney Pictures, Touchwood Pacific Partners 1
Режисер: Двейн Данем
Актори: Майкл Джей Фокс, Дон Алдер, Ед Бернард, Кевін Чевалія, Вероніка Лорен, Вуді Еней, Кім Грайст, Річ Гокінс, Роберт Хейс та інші

Сюжет:
Господарі двох собак та чарівної кішечки Сесі змушені на деякий час виїхати, тож віддають своїх вихованців на ранчо друга. Через деякий час тварини, які опинилися за сотні миль від улюбленого будинку, починають турбуватися, чи бува не трапились у господарів неприємності. Поміркувавши, весела трійця вирішує самостійно дістатися до дому і пускається в неймовірно небезпечну подорож по горах і пустелях...


Тривалість: 01:24:25
Якість:
Відео:
кодек:
розмір кадру: 720 х 384
бітрейт: 1671 кб/с

Аудіо #1:
мова: українська
переклад: багатоголосий закадровий | студія LeDoyen
кодек: 2.0 [stereo]
бітрейт: 192 кб/с
Інформація про озвучення

Аудіо #2:
мова: українська
переклад: багатоголосий закадровий
кодек: 2.0
бітрейт: 192 кб/с

Аудіо #3:
мова: англійська
переклад: оригінал
кодек: 5.1
бітрейт: 384 кб/с
Info
Код:
General
Complete name               : G:\Homeward Bound. The Incredible Journey (1993) [2xUKR_ENG] [Hurtom].avi
Format                      : AVI
Format/Info                 : Audio Video Interleave
File size                   : 1.45 GiB
Duration                    : 1 h 24 min
Overall bit rate            : 2 458 kb/s
Writing application         : VirtualDubModUkr 1.5.10.2 (build 2542/release)
Writing library             : VirtualDubMod build 2542/release

Video
ID                          : 0
Format                      : MPEG-4 Visual
Format profile              : Advanced [email protected]
Format settings             : BVOP2
Format settings, BVOP       : 2
Format settings, QPel       : No
Format settings, GMC        : No warppoints
Format settings, Matrix     : Default (MPEG)
Codec ID                    :
Codec ID/Hint               :
Duration                    : 1 h 24 min
Bit rate                    : 1 671 kb/s
Width                       : 720 pixels
Height                      : 384 pixels
Display aspect ratio        : 1.85:1
Frame rate                  : 23.976 (24000/1001) FPS
Color space                 : YUV
Chroma subsampling          : 4:2:0
Bit depth                   : 8 bits
Scan type                   : Progressive
Compression mode            : Lossy
Bits/(Pixel*Frame)          : 0.252
Stream size                 : 1 009 MiB (68%)
Writing library             : 73

Audio #1
ID                          : 1
Format                      : AC-3
Format/Info                 : Audio Coding 3
Commercial name             : Dolby Digital
Codec ID                    : 2000
Duration                    : 1 h 24 min
Bit rate mode               : Constant
Bit rate                    : 192 kb/s
Channel(s)                  : 2 channels
Channel layout              : L R
Sampling rate               : 48.0 kHz
Frame rate                  : 31.250 FPS (1536 SPF)
Bit depth                   : 16 bits
Compression mode            : Lossy
Stream size                 : 116 MiB (8%)
Alignment                   : Split across interleaves
Interleave, duration        : 42  ms (1.00 video frame)
Interleave, preload duratio : 500  ms
Service kind                : Complete Main

Audio #2
ID                          : 2
Format                      : AC-3
Format/Info                 : Audio Coding 3
Commercial name             : Dolby Digital
Codec ID                    : 2000
Duration                    : 1 h 24 min
Bit rate mode               : Constant
Bit rate                    : 192 kb/s
Channel(s)                  : 2 channels
Channel layout              : L R
Sampling rate               : 48.0 kHz
Frame rate                  : 31.250 FPS (1536 SPF)
Bit depth                   : 16 bits
Compression mode            : Lossy
Stream size                 : 116 MiB (8%)
Alignment                   : Split across interleaves
Interleave, duration        : 42  ms (1.00 video frame)
Interleave, preload duratio : 500  ms
Service kind                : Complete Main

Audio #3
ID                          : 3
Format                      : AC-3
Format/Info                 : Audio Coding 3
Commercial name             : Dolby Digital
Codec ID                    : 2000
Duration                    : 1 h 24 min
Bit rate mode               : Constant
Bit rate                    : 384 kb/s
Channel(s)                  : 6 channels
Channel layout              : L R C LFE Ls Rs
Sampling rate               : 48.0 kHz
Frame rate                  : 31.250 FPS (1536 SPF)
Bit depth                   : 16 bits
Compression mode            : Lossy
Stream size                 : 232 MiB (16%)
Alignment                   : Split across interleaves
Interleave, duration        : 42  ms (1.00 video frame)
Interleave, preload duratio : 500  ms
Service kind                : Complete Main


Подяка пану NemoInFire за доріжку #1, а також igrik09 за доріжку #2

Джерело:



Срібний реліз (на рейтинг впливає 50% завантаженого)
 Трекер:    Зареєстрований   

Завантажити / скачати фільм українською



відео для новачків



 Зареєстрований:   2019-05-26 12:24
 Розмір:   1.45 GB 
 Оцінка фільму:   10/10 (Голосів: 3)
   
Ваш часовий пояс: GMT + 2 Години

Нова тема   Відповісти