Крикуни / Screamers (1995) Remux 1080p 2хUkr/Eng | Sub Eng

Нові коментарі

Нова тема   Відповісти
Автор Повідомлення
MakRA 
VIP


З нами з: 11.11.18
Востаннє: 19.09.20
Повідомлень: 1115

2019-05-25 23:54  
Крикуни / Screamers (1995) Remux 1080p 2хUkr/Eng | Sub Eng

Крикуни / Screamers (1995) Remux 1080p 2хUkr/Eng | Sub Eng

«Останній крик, який ви почуєте, буде ваш власний ...»

Альтернативні обкладинки:




Жанр: екшн, фантастика, трилер
Країна: Канада, США, Японія



Кінокомпанія: Triumph Films, Fuji Eight Company Ltd., Fries Film Group, Allegro Films, Super Écran, The Movie Network (TMN)
Режисер: Крістіан Дугай [Christian Duguay]
Актори: Пітер Веллер [Peter Weller], Рой Дюпуі [Roy Dupuis], Дженіфер Рубін [Jennifer Rubin], Енді Лоуер [Andy Lauer], Рон Вайт [Ron White], Чарльз Повел [Charles Powel]l, Ліліана Коморовська [Liliana Komorowska].

Сюжет:
2078 рік. Планета Сиріус-6Б. 50 років "НЕБ" контролює видобуток корисних копалин на планетах усіх відомих сонячних систем. 20 років тому на Сиріусі-6Б "НЕБ" відкрив засіб проти світової енергетичної кризи - Бериній. Його видобування призвело до небезпечного забруднення. "Альянс", профспілка шахтарів та науковці висунули вимогу припинити видобуток. У відповідь "НЕБ" оголосив війну і бомбардував планету. Одного дня офіцер "Альянсу" - полковник Хендріксон отримує від керівника бази "НЕБ" пропозицію домовитися про перемир'я, а можливо і закінчити війну остаточно. Хендріксон бере з собою новачка та йде зустріч... Тепер, на десятому році війни, ті хто вижив на Сиріусі-6Б зіткнулися з незнаною досі небезпекою

Цікаве про фільм:

-Ден О'Бенон почав працювати над сценарієм «Крикунів» ще 1981 року. На чернетці сценарію від 10.10.1984 співавтором значиться Майкл Кампус (англ. Michael Campus).
-Ранні версії сценарію мали назву «Claw» (Кіготь), як посилання на роботів, що в оповіданні Філіпа Діка звалися кігті, а не крикуни.
-У оповіданні Філіпа Діка події відбуваються на Землі, а не на Сиріусі 6Б. В оригіналі крикунів розробили Американські військовики, що ховалися на Місяці, для вигубу Радянської Армії, після того, як Радянський Союз цілком знищив Сполучені Штати.
-Дивна гральна дошка на початку фільму — Гра з Ур (також відома, як Гра у 20 квадратів), гра з Давньої Месапотамії, що її правила було втрачено.
-Продюсер Том Бері зафільмувався в ролі техніка.
-Ленс Генриксен знімався у фільмі Чужий проти Хижака, а Джина Голден у його продовженні Чужі проти Хижака: Реквієм.


Тривалість: 01:48:23
Якість: Remux 1080p
Відео:
кодек:
розмір кадру: 1920 х 1080
бітрейт: 34 Мб/с

Аудіо # 1:
мова: українська
переклад: багатоголосий закадровий
кодек: 2.0
бітрейт: 192 кб/с

Аудіо # 2:
мова: українська
переклад: багатоголосий закадровий
кодек: 2.0
бітрейт: 192 кб/с

Аудіо # 3:
мова: англійська
переклад: оригінал
кодек: -HD MA 2.0
бітрейт: 1 614 кб/с

Аудіо # 4:
мова: англійська
переклад: оригінал
кодек: 5.1
бітрейт: 384 кб/с

Субтитри: (SDH)
мова: англійська
тип: програмні (м'які)
формат: *.srt
Збережено оригінальні розділи, як на Blu-ray.
Info
General
Unique ID : 227192080594353693242400983723043265657 (0xAAEB9A65B51251DE7A7F7FEB895D1C79)
Complete name : E:\Фантастика, екшн\Screamers (1995-2009) Remux 1080p\Screamers (1995) Remux 1080p 2хUkrEng Sub Eng [Hurtom].
Format :
Format version : Version 4 / Version 2
File size : 26.9 GiB
Duration : 1 h 48 min
Overall bit rate : 35.6 Mb/s
Movie name : Крикуни / Screamers (1995) Remux 1080p 2хUkr/Eng | Sub Eng [Hurtom]
Encoded date : UTC 2019-05-25 17:01:10
Writing application : v25.0.0 ('Prog Noir') 64-bit
Writing library : libebml v1.3.6 + v1.4.9
Cover : Yes
Attachments : cover.jpg

Video
ID : 1
Format : AVC
Format/Info : Advanced Video Codec
Format profile : Hig[email protected]
Format settings, CABAC : Yes
Format settings, RefFrames : 4 frames
Codec ID : V_MPEG4/ISO/AVC
Duration : 1 h 48 min
Bit rate mode : Constant
Bit rate : 34.0 Mb/s
Width : 1 920 pixels
Height : 1 080 pixels
Display aspect ratio : 16:9
Frame rate mode : Constant
Frame rate : 23.976 (24000/1001) FPS
Color space : YUV
Chroma subsampling : 4:2:0
Bit depth : 8 bits
Scan type : Progressive
Bits/(Pixel*Frame) : 0.684
Stream size : 25.1 GiB (93%)
Title : Screamers (1995) Remux 1080p 2хUkr/Eng | Sub Eng [Hurtom]
Language : Ukrainian
Default : Yes
Forced : Yes

Audio #1
ID : 2
Format : AC-3
Format/Info : Audio Coding 3
Format settings, Endianness : Big
Codec ID : A_AC3
Duration : 1 h 48 min
Bit rate mode : Constant
Bit rate : 192 kb/s
Channel(s) : 2 channels
Channel positions : Front: L R
Sampling rate : 48.0 kHz
Frame rate : 31.250 FPS (1536 SPF)
Bit depth : 16 bits
Compression mode : Lossy
Stream size : 149 MiB (1%)
Title : MVO [1+1] [ICTV] 2.0
Language : Ukrainian
Service kind : Complete Main
Default : Yes
Forced : Yes

Audio #2
ID : 3
Format : AC-3
Format/Info : Audio Coding 3
Format settings, Endianness : Big
Codec ID : A_AC3
Duration : 1 h 48 min
Bit rate mode : Constant
Bit rate : 192 kb/s
Channel(s) : 2 channels
Channel positions : Front: L R
Sampling rate : 48.0 kHz
Frame rate : 31.250 FPS (1536 SPF)
Bit depth : 16 bits
Compression mode : Lossy
Stream size : 149 MiB (1%)
Title : MVO [HTH] [INTER] 2.0
Language : Ukrainian
Service kind : Complete Main
Default : No
Forced : No

Audio #3
ID : 4
Format :
Format/Info : Digital Theater Systems
Format profile : MA / Core
Mode : 16
Format settings, Endianness : Big
Codec ID : A_DTS
Duration : 1 h 48 min
Bit rate mode : Variable / Constant
Bit rate : 1 614 kb/s / 1 509 kb/s
Channel(s) : 2 channels
Channel positions : Front: L R
Sampling rate : 48.0 kHz
Frame rate : 93.750 FPS (512 SPF)
Bit depth : 24 bits
Compression mode : Lossless / Lossy
Stream size : 1.22 GiB (5%)
Title : Original -HD MA 2.0
Language : English
Default : No
Forced : No

Audio #4
ID : 5
Format : AC-3
Format/Info : Audio Coding 3
Format settings, Endianness : Big
Codec ID : A_AC3
Duration : 1 h 48 min
Bit rate mode : Constant
Bit rate : 384 kb/s
Channel(s) : 6 channels
Channel positions : Front: L C R, Side: L R, LFE
Sampling rate : 48.0 kHz
Frame rate : 31.250 FPS (1536 SPF)
Bit depth : 16 bits
Compression mode : Lossy
Stream size : 298 MiB (1%)
Title : Original 5.1
Language : English
Service kind : Complete Main
Default : No
Forced : No

Text
ID : 6
Format : UTF-8
Codec ID : S_TEXT/UTF8
Codec ID/Info : UTF-8 Plain Text
Duration : 1 h 42 min
Bit rate : 45 b/s
Count of elements : 1073
Stream size : 34.5 KiB (0%)
Title : Eng SDH
Language : English
Default : No
Forced : No

Menu
00:00:00.000 : en:Chapter 1
00:08:55.993 : en:Chapter 2
00:21:27.911 : en:Chapter 3
00:28:47.976 : en:Chapter 4
00:39:23.402 : en:Chapter 5
00:48:48.467 : en:Chapter 6
00:57:45.211 : en:Chapter 7
01:07:51.984 : en:Chapter 8
01:15:23.018 : en:Chapter 9
01:22:58.556 : en:Chapter 10
01:31:23.561 : en:Chapter 11
01:44:49.658 : en:Chapter 12
Скріншоти
Джерело: &
Дякую за запис з ICTV п. Bohdan237, запис з НТН п. bodia87, і п. Arsenfpu за синхронізацію обох доріжок
Особиста оцінка: 10 - без зайвих вагань рекомендую всім!




Золотий реліз (завантажене не впливає на рейтинг)
 Трекер:    Зареєстрований   

Завантажити / скачати фільм українською



відео для новачків



 Зареєстрований:   2019-05-25 23:54
 Розмір:   26.93 GB 
 Оцінка фільму:   10/10 (Голосів: 9)
   
Інші релізи
   Крикуни / Screamers (1995) 1080p H.265 2хUkr/Eng | Sub Eng -Star-Lord-  4 / 0   10.58 GB   2020-03-27 02:28 
   Крикуни / Screamers (1995) AVC 2xUkr/Eng | Sub Eng staf777  3 / 0   2.48 GB   2018-08-23 09:05 
   Крикуни / Screamers (1995) 1080p 2xUkr/Eng | Sub Eng staf777  1 / 0   11.7 GB   2018-05-09 18:57 
   Крикуни / Screamers (1995) 2xUkr/Eng Arsenfpu  2 / 0   2.2 GB   2018-04-16 23:29 
   Крикуни / Screamers (1995) 720p Ukr/Eng | Sub Eng 11FrYkT  2 / 0   3.45 GB   2014-02-27 11:53 
O_omarella! 
Поважний учасник


З нами з: 14.06.13
Востаннє: 18.08.20
Повідомлень: 194

2019-06-25 21:16  
Отримав задоволення після перегляду! Дякую за якість!
MakRA 
VIP


З нами з: 11.11.18
Востаннє: 19.09.20
Повідомлень: 1115

2019-06-25 22:10  
O_omarella!
Будь ласка. Фільм атмосферний. Передивляюся інколи.

tktl 
Частий відвідувач


З нами з: 25.08.13
Востаннє: 19.09.20
Повідомлень: 38

2020-01-16 13:42  
Дякую за реліз в якості. Фільм непоганий. Для поціновувачів старої нф школи.
Ваш часовий пояс: GMT + 2 Години

Нова тема   Відповісти