Таємниці Лос-Анджелеса / L.A. Confidential (1997) 1080p H.265 Ukr/Eng | Sub Eng

Нові коментарі

Нова тема   Відповісти
Автор Повідомлення
Anonymous 







2019-05-25 22:54  
Таємниці Лос-Анджелеса / L.A. Confidential (1997) 1080p H.265 Ukr/Eng | Sub Eng

Таємниці Лос-Анджелеса / L.A. Confidential (1997) 1080p H.265 Ukr/Eng | Sub Eng


Жанр: пригодницький, кримінальний, драма, романтичний, трилер
Країна: США
Кінокомпанія: Regency Enterprises, Wolper Organization, The Warner Bros. Pictures
Режисер: Кертіс Генсон (Curtis Hanson)
Актори: Кевін Спейсі (Kevin Spacey), Рассел Кроу (Russell Crowe), Ґай Пірс (Guy Pearce), Джеймс Кромуелл (James Cromwell), Кім Бейсінгер (Kim Basinger), Девід Стретейрн (David Strathairn), Денні ДеВіто (Danny DeVito), Грем Беккел (Graham Beckel), Пол Гілфойл (Paul Guilfoyle), Рон Ріфкін (Ron Rifkin) та інші.

Сюжет:
Ласкаво просимо до Лос-Анджелеса, з його яскравим сонцем, широкими ваблячими пляжами і ... процвітаючою організованою злочинністю. Відомо навіть ім'я ватажка злочинного світу - Міккі Коен. Після арешту боса мафії один за іншим у той світ відправляються його помічники, які прагнули зайняти місце, що звільнилося. У битву зі злочинцями, природно, вступає знаменита поліція Лос-Анджелеса. Два безстрашних поліцейських, які розслідують серію вбивств, виявляються суперниками не тільки на роботі, але і в ліжку повії з екзотичного борделю.

Тривалість: 02:17:53
Якість:
Відео:
кодек: H.265 (HEVC)
розмір кадру: 1916 x 800
бітрейт: 7 389 кб/с
бітова глибина: 10 біт
Увага! Перед завантаженням переконайтесь, що ваш пристрій відтворення (та/або ПЗ) підтримує H.265 (HEVC)

Аудіо # 1:
мова: українська
переклад: професійний дубльований
кодек: AC-3 5.1
бітрейт: 384 кб/с

Аудіо # 2:
мова: англійська
переклад: оригінал
кодек: AC-3 5.1
бітрейт: 640 кб/с

Субтитри # 1:
мова: українська (Forced (До моменту без перекладу з 1:17:09 до 1:17:22)),
тип: програмні (м'які)
формат: *.srt

Субтитри # 2:
мова: англійська (Full),
тип: програмні (м'які)
формат: *.srt

Субтитри # 3:
мова: англійська (SDH),
тип: програмні (м'які)
формат: *.srt


Info
Код:
General
Unique ID                                : 297185148280979920724256128102849070785 (0xDF93C7117573549175D0F8E7F42046C1)
Complete name                            : F:\Video\L.A. Confidential (1997) 1080p H.265 [UKR_ENG] [Hurtom].
Format                                   :
Format version                           : Version 4 / Version 2
File size                                : 8.10 GiB
Duration                                 : 2 h 17 min
Overall bit rate                         : 8 415 kb/s
Movie name                               : Таємниці Лос-Анджелеса / L.A. Confidential (1997)
Encoded date                             : UTC 2019-05-25 20:29:07
Writing application                      : v20.0.0 ('I Am The Sun') 64-bit
Writing library                          : libebml v1.3.5 + v1.4.8
Cover                                    : Yes
Attachments                              : Cover.jpg

Video
ID                                       : 1
Format                                   : HEVC
Format/Info                              : High Efficiency Video Coding
Format profile                           : Main [email protected]@High
Codec ID                                 : V_MPEGH/ISO/HEVC
Duration                                 : 2 h 17 min
Bit rate                                 : 7 388 kb/s
Width                                    : 1 916 pixels
Height                                   : 800 pixels
Display aspect ratio                     : 2.40:1
Frame rate mode                          : Constant
Frame rate                               : 23.976 (24000/1001) FPS
Color space                              : YUV
Chroma subsampling                       : 4:2:0
Bit depth                                : 10 bits
Bits/(Pixel*Frame)                       : 0.201
Stream size                              : 7.12 GiB (88%)
Title                                    : Таємниці Лос-Анджелеса / L.A. Confidential (1997)
Writing library                          : x265 3.0+1-ed72af837053:[Windows][MSVC 1916][64 bit] 10bit
Encoding settings                        : cpuid=1111039 / frame-threads=4 / numa-pools=16 / wpp / no-pmode / no-pme / no-psnr / no-ssim / log-level=2 / input-csp=1 / input-res=1916x800 / interlace=0 / total-frames=198360 / level-idc=41 / high-tier=1 / uhd-bd=0 / ref=5 / no-allow-non-conformance / no-repeat-headers / annexb / no-aud / no-hrd / info / hash=0 / no-temporal-layers / open-gop / min-keyint=23 / keyint=240 / gop-lookahead=0 / bframes=10 / b-adapt=2 / b-pyramid / bframe-bias=0 / rc-lookahead=60 / lookahead-slices=1 / scenecut=40 / radl=0 / no-splice / no-intra-refresh / ctu=32 / min-cu-size=8 / rect / amp / max-tu-size=32 / tu-inter-depth=4 / tu-intra-depth=4 / limit-tu=1 / rdoq-level=2 / dynamic-rd=0.00 / no-ssim-rd / signhide / no-tskip / nr-intra=0 / nr-inter=0 / no-constrained-intra / no-strong-intra-smoothing / max-merge=5 / limit-refs=3 / limit-modes / me=3 / subme=7 / merange=57 / temporal-mvp / weightp / weightb / no-analyze-src-pics / deblock=-3:-3 / no-sao / no-sao-non-deblock / rd=6 / no-early-skip / no-rskip / no-fast-intra / no-tskip-fast / no-cu-lossless / no-b-intra / no-splitrd-skip / rdpenalty=0 / psy-rd=1.85 / psy-rdoq=1.15 / no-rd-refine / no-lossless / cbqpoffs=0 / crqpoffs=0 / rc=crf / crf=18.5 / qcomp=0.70 / qpstep=4 / stats-write=0 / stats-read=0 / vbv-maxrate=50000 / vbv-bufsize=50000 / vbv-init=0.9 / crf-max=0.0 / crf-min=0.0 / ipratio=1.40 / pbratio=1.30 / aq-mode=1 / aq-strength=1.00 / no-cutree / zone-count=1 / zones: / start-frame=191486 / end-frame=198359 / qp=35 / no-strict-cbr / qg-size=32 / no-rc-grain / qpmax=69 / qpmin=0 / no-const-vbv / sar=1 / overscan=0 / videoformat=5 / range=0 / colorprim=1 / transfer=1 / colormatrix=1 / chromaloc=0 / display-window=0 / max-cll=0,0 / min-luma=0 / max-luma=1023 / log2-max-poc-lsb=8 / vui-timing-info / vui-hrd-info / slices=1 / no-opt-qp-pps / no-opt-ref-list-length-pps / no-multi-pass-opt-rps / scenecut-bias=0.05 / no-opt-cu-delta-qp / no-aq-motion / no-hdr / no-hdr-opt / no-dhdr10-opt / no-idr-recovery-sei / analysis-reuse-level=5 / scale-factor=0 / refine-intra=0 / refine-inter=0 / refine-mv=0 / refine-ctu-distortion=0 / no-limit-sao / ctu-info=0 / no-lowpass-dct / refine-analysis-type=0 / copy-pic=1 / max-ausize-factor=1.0 / no-dynamic-refine / no-single-sei / hevc-aq / qp-adaptation-range=2.00
Language                                 : English
Default                                  : Yes
Forced                                   : No
Color range                              : Limited
Color primaries                          : BT.709
Transfer characteristics                 : BT.709
Matrix coefficients                      : BT.709

Audio #1
ID                                       : 2
Format                                   : AC-3
Format/Info                              : Audio Coding 3
Codec ID                                 : A_AC3
Duration                                 : 2 h 17 min
Bit rate mode                            : Constant
Bit rate                                 : 384 kb/s
Channel(s)                               : 6 channels
Channel positions                        : Front: L C R, Side: L R, LFE
Sampling rate                            : 48.0 kHz
Frame rate                               : 31.250 FPS (1536 SPF)
Bit depth                                : 16 bits
Compression mode                         : Lossy
Delay relative to video                  : 8 ms
Stream size                              : 379 MiB (5%)
Title                                    : ПД - 1+1 - 5.1 @ 448 kbps
Language                                 : Ukrainian
Service kind                             : Complete Main
Default                                  : Yes
Forced                                   : Yes

Audio #2
ID                                       : 3
Format                                   : AC-3
Format/Info                              : Audio Coding 3
Codec ID                                 : A_AC3
Duration                                 : 2 h 17 min
Bit rate mode                            : Constant
Bit rate                                 : 640 kb/s
Channel(s)                               : 6 channels
Channel positions                        : Front: L C R, Side: L R, LFE
Sampling rate                            : 48.0 kHz
Frame rate                               : 31.250 FPS (1536 SPF)
Bit depth                                : 16 bits
Compression mode                         : Lossy
Stream size                              : 631 MiB (8%)
Title                                    : Original - 5.1 @ 640 kbps
Language                                 : English
Service kind                             : Complete Main
Default                                  : No
Forced                                   : No

Text #1
ID                                       : 4
Format                                   : UTF-8
Codec ID                                 : S_TEXT/UTF8
Codec ID/Info                            : UTF-8 Plain Text
Duration                                 : 14 s 848 ms
Bit rate                                 : 75 b/s
Count of elements                        : 5
Stream size                              : 140 Bytes (0%)
Title                                    : Forced (До моменту без перекладу з 1:17:09 до 1:17:22)
Language                                 : Ukrainian
Default                                  : Yes
Forced                                   : Yes

Text #2
ID                                       : 5
Format                                   : UTF-8
Codec ID                                 : S_TEXT/UTF8
Codec ID/Info                            : UTF-8 Plain Text
Duration                                 : 2 h 17 min
Bit rate                                 : 55 b/s
Count of elements                        : 1625
Stream size                              : 55.6 KiB (0%)
Title                                    : Full
Language                                 : English
Default                                  : No
Forced                                   : No

Text #3
ID                                       : 6
Format                                   : UTF-8
Codec ID                                 : S_TEXT/UTF8
Codec ID/Info                            : UTF-8 Plain Text
Duration                                 : 2 h 17 min
Bit rate                                 : 62 b/s
Count of elements                        : 1658
Stream size                              : 62.7 KiB (0%)
Title                                    : SDH
Language                                 : English
Default                                  : No
Forced                                   : No

Menu
00:00:00.000                             : en:
00:16:20.938                             : en:
00:24:27.549                             : en:
00:30:01.967                             : en:
00:36:45.995                             : en:
00:45:59.632                             : en:
00:56:08.031                             : en:
01:02:27.619                             : en:
01:07:45.645                             : en:
01:14:33.010                             : en:
01:24:27.145                             : en:
01:36:37.291                             : en:
01:40:50.127                             : en:
01:51:31.310                             : en:
01:58:18.800                             : en:
02:07:05.952                             : en:
02:13:01.640                             : en:
Світлини





Джерело: &
Особиста оцінка: 0 - не дивився


Срібний реліз (на рейтинг впливає 50% завантаженого)
 Трекер:    Зареєстрований   

Завантажити / скачати фільм українською



відео для новачків



 Зареєстрований:   2019-05-25 22:54
 Розмір:   8.1 GB 
 Оцінка фільму:   9.9/10 (Голосів: 7)
   
Spaceberry 
Новенький


З нами з: 16.11.16
Востаннє: 17.11.19
Повідомлень: 10

2019-07-29 13:27  
Дуже круте кiно. Дуже динамiчне та захопливе. Дубляж не iдеальний але досить якiсний як для спроби.
Ваш часовий пояс: GMT + 2 Години

Нова тема   Відповісти