Боб-будівельник (Сезон 21) / Bob the Builder (Season 21) (2018) 1080i

Нові коментарі

Нова тема   Відповісти
Автор Повідомлення
Mirokha 
Частий відвідувач


З нами з: 10.02.09
Востаннє: 16.04.21
Повідомлень: 28

2019-05-25 20:24  
Боб-будівельник (Сезон 21) / Bob the Builder (Season 21) (2018) 1080i

Боб-будівельник (Сезон 21) / Bob the Builder (Season 21) (2018) 1080i


Жанр: анімація, дитячий, сімейний
Країна: Великобританія



Кінокомпанія: HIT Entertainment, DHX Media, Mattel Creations
Режисер: Ларрі Джейкобс / Larry Jacobs
Актори: Лі Інглбі / Lee Ingleby - Боб, Джоан Фроггатт / Joanne Froggatt - Венді, Блейк Харрісон / Blake Harrison - Скуп, Стівен Кінман / Steven Kynman - Лофті, Террі Мінотт / Terry Mynott - Дві тонни, Сем Сванн / Sam Swann - Стретч, Расмус Хардікер / Rasmus Hardiker - Роккі, Пол Пантінг / Paul Panting - Мак, Якоб Сципіо / Jacob Scipio - Лео, Марсель МакКалла / Marcel McCalla - Роллі

Сюжет:
21 сезон "Боба-будівельника" - є третім сезоном "перезавантаженого" "Боба". В новому "Бобі-будівельнику" були повністю перероблені персонажі мультсеріалу та змінені їх особистості, їх дизайн, деякі зникли зовсім в порівнянні з "оригінальним" "Бобом-будівельником", котрий виходив до 2012 року.


Тривалість: 1 серія: 10:43 (цілком серій: 26)
Перелік серій
01. Неймовірний лабіринт / The A-mazing Maze (January 2, 2018)
02. Ведучий Боб / Grand Marshal Bob (January 3, 2018)
03. Трек для робоперегонів / Fess Up or Mess Up (January 4, 2018)
04. Перша споруда Боба / Bob's First Build (January 5, 2018)
05. Затор / Grid Block (January 8, 2018)
06. Міст для рисі / Bobcat Bridge (January 9, 2018)
07. Скуп - чемпіон / Speedway Scoop (January 10, 2018)
08. Розмова папуг / Parrot Talk (January 11, 2018)
09. Проблеми Лофті з гральним майданчиком / Lofty's Playground Problem (January 12, 2018)
10. Собача катастрофа / Dog Disaster (January 15, 2018)
11. Смуга з якої не можна утекти / Can't Run Away Runway (January 16, 2018)
12. Маленькі помилки Скупа / Scoop's Big Oops (January 17, 2018)
13. Порятунок Мака / Floating Away (January 18, 2018)
14. Надшвидка поїздка реактивного Скупа / Jet Powered Scoop (January 19, 2018)
15. Важливий вантаж / A Heavy Load (January 22, 2018)
16. Хаос на каналі / Canal Chaos (January 23, 2018)
17. Хліви для тварин / Barn Building Bedlam (January 24, 2018)
18. Акведук / Aqua Ducks (January 25, 2018)
19. Вежа мобільного зв'язку / Talking Loud and Clear (January 26, 2018)
20. Халепа у тунелі / Tunnel Trouble (March 19, 2018)
21. Команда детективів Боба / Bob's Detective Squad (March 20, 2018)
22. Вибуховий фільм Айса / Ace's Dynamite Movie (March 21, 2018)
23. Проблема зі старим мостом / Bridge Over Trouble (March 22, 2018)
24. Що за опера, Маку? / What's Opera, Muck? (March 23, 2018)
25. Снігова людина / Snowman Scare (December 1, 2018)
26. Святкування Нового Року / New Year's Spectacular (December 30, 2018)
Якість:
Відео:
кодек:
розмір кадру: 1920 х 1080
бітрейт: ~3 624 кб/с

Аудіо:
мова: українська
переклад: багатоголосий закадровий
кодек: MP3
бітрейт: 192 кб/с

Джерело озвучення:
Info
General
Unique ID : 104978712054546031730462339607970059319 (0x4EFA2A1D1FE34C04C047D48E1D2E1437)
Complete name : I:\rec\cartoonrec\Bob.The.Builder.s21(2018)1080i..ukr\Bob.The.Builder.s21e16.Canal.Chaos..ukr.
Format :
Format version : Version 4
File size : 299 MiB
Duration : 10 min 43 s
Overall bit rate : 3 894 kb/s
Writing application : Lavf57.71.100
Writing library : Lavf57.71.100
ErrorDetectionType : Per level 1

Video
ID : 1
Format : AVC
Format/Info : Advanced Video Codec
Format profile : [email protected]
Format settings : CABAC / 4 Ref Frames
Format settings, CABAC : Yes
Format settings, Reference : 4 frames
Codec ID : V_MPEG4/ISO/AVC
Duration : 10 min 43 s
Bit rate : 3 624 kb/s
Width : 1 920 pixels
Height : 1 080 pixels
Display aspect ratio : 16:9
Frame rate mode : Constant
Frame rate : 25.000 FPS
Standard : Component
Color space : YUV
Chroma subsampling : 4:2:0
Bit depth : 8 bits
Scan type : Interlaced
Scan type, store method : Separated fields
Scan order : Top Field First
Bits/(Pixel*Frame) : 0.070
Stream size : 278 MiB (93%)
Default : Yes
Forced : No
Color range : Limited
Color primaries : BT.709
Transfer characteristics : BT.709
Matrix coefficients : BT.709

Audio
ID : 2
Format : MPEG Audio
Format version : Version 1
Format profile : Layer 3
Format settings : Joint stereo
Codec ID : A_MPEG/L3
Codec ID/Hint : MP3
Duration : 10 min 43 s
Bit rate mode : Constant
Bit rate : 192 kb/s
Channel(s) : 2 channels
Sampling rate : 48.0 kHz
Compression mode : Lossy
Delay relative to video : -72 ms
Stream size : 14.7 MiB (5%)
Language : Ukrainian
Default : Yes
Forced : No
Скріншоти







Джерело:

Особиста оцінка: 8 - мені сподобалося


Бронзовий реліз (на рейтинг впливає 75% завантаженого)
 Трекер:    Зареєстрований   

Завантажити / скачати мультфільм українською



відео для новачків



 Зареєстрований:   2019-05-25 20:24
 Розмір:   7.56 GB 
 Оцінка мультсеріалу:   10/10 (Голосів: 7)
   
Panther2214 
Попереджень: 1
Попереджень: 1 


З нами з: 29.09.17
Востаннє: 14.04.21
Повідомлень: 444

2019-05-25 21:03  
Це що за слово будівник??? Такого слова не існує навіть у природі, тільки не треба писати що так озвучила студія... Боб будівельник змістовніше звучить українською, решту назви можна не вписувати, для кого така показуха???
Mirokha 
Частий відвідувач


З нами з: 10.02.09
Востаннє: 16.04.21
Повідомлень: 28

2019-05-25 21:08  
Panther2214 написано:
Це що за слово будівник??? Такого слова не існує навіть у природі, тільки не треба писати що так озвучила студія... Боб будівельник змістовніше звучить українською, решту назви можна не вписувати, для кого така показуха???

Згоден на 100 %, але в правилах чітко прописано, що
6c6c6 написано:
Обов'язково вказувати назву фільму, яку йому дала студія озвучення. Якщо назва має декілька варіантів або релізер хоче дати свій, вони пишуться через знак "/" в наступній послідовності: Варіант української назви / Інший варіант української назви / Оригінальна назва / Інші варіанти в інших мовах. Послідовність українських назв довільна.

sergiyko.5 
Забанено
Забанено


З нами з: 25.02.16
Востаннє: 29.10.20
Повідомлень: 3648

2019-05-25 22:35  
Дякую за роботу. Побажання на майбутнє, звук краще кодувати в Dolby , якісніше.
Panther2214 
Попереджень: 1
Попереджень: 1 


З нами з: 29.09.17
Востаннє: 14.04.21
Повідомлень: 444

2019-05-26 11:06  
Mirokha

Правила існують для того, щоб їх порушувати Wide grin Від правил назва не зміниться, а писати краще як перекладено українською, студію можна проігнорувати (хай котиться під три чорти зі своїм перекладом) Wide grin

Klisan 
Новенький


З нами з: 22.11.09
Востаннє: 16.04.21
Повідомлень: 16

2019-06-19 10:26  
Дякую за реліз. Син дуже любить цей мультфільм "Про кран".
Ваш часовий пояс: GMT + 2 Години

Нова тема   Відповісти