Формула 1. Сезон 2019. Етап 6. Гран-Прі Монако. Кваліфікація (25.05.2019) 720p Ukr/Eng

Нові коментарі

Нова тема   Відповісти
Автор Повідомлення
sergiyko.5 
Забанено
Забанено


З нами з: 25.02.16
Востаннє: 29.10.20
Повідомлень: 3651

2019-05-25 19:10  
Формула 1. Сезон 2019. Етап 6. Гран-Прі Монако. Кваліфікація (25.05.2019) 720p Ukr/Eng

Формула 1. Сезон 2019. Етап 6. Гран-Прі Монако. Кваліфікація (25.05.2019) 720p Ukr/Eng

Жанр: Перегони Формули 1
Країна: Монако
Телеканал: F1 TV
Коментатор: Максим Подзігун

Опис:
Кваліфікація шостого етапу Гран-Прі Монако 2019 року.


Якість:

Відео:кодек: розмір кадру: 1280 х 720 бітрейт: 4000 кб/с
Аудіо # 1: мова: українська кодек: MP2 2.0 бітрейт: 192 кб/с
Аудіо # 2: мова: англійська кодек: 2.0 бітрейт: 90 кб/с
Тривалість:
01:14:22
Про файл:
General
Unique ID : 141398079714564415206648178736005677389 (0x6A6047928FF33AC3203B39806A6C814D)
Complete name : G:\Torrents2\SPORT\Formula 1\F1.2019.Qualifying\F1.2019.06.Monaco.Qualifying.720p..Ukr.Eng.
Format :
Format version : Version 4
File size : 2.21 GiB
Duration : 1 h 14 min
Overall bit rate : 4 254 kb/s
Encoded date : UTC 2019-05-25 17:04:58
Writing application : v33.1.0 ('Primrose') 64-bit
Writing library : libebml v1.3.7 + v1.5.0

Video
ID : 1
Format : AVC
Format/Info : Advanced Video Codec
Format profile : [email protected]
Format settings : CABAC / 4 Ref Frames
Format settings, CABAC : Yes
Format settings, Reference : 4 frames
Format settings, GOP : M=4, N=50
Codec ID : V_MPEG4/ISO/AVC
Duration : 1 h 14 min
Bit rate mode : Constant
Bit rate : 4 000 kb/s
Width : 1 280 pixels
Height : 720 pixels
Display aspect ratio : 16:9
Frame rate mode : Constant
Frame rate : 25.000 FPS
Color space : YUV
Chroma subsampling : 4:2:0
Bit depth : 8 bits
Scan type : Progressive
Bits/(Pixel*Frame) : 0.174
Stream size : 2.08 GiB (94%)
Title : F1.2019.06.Monaco.Qualifying.720p.
Language : English
Default : Yes
Forced : No

Audio #1
ID : 2
Format : MPEG Audio
Format version : Version 1
Format profile : Layer 2
Codec ID : A_MPEG/L2
Codec ID/Hint : MP2
Duration : 1 h 14 min
Bit rate mode : Constant
Bit rate : 192 kb/s
Channel(s) : 2 channels
Sampling rate : 48.0 kHz
Frame rate : 41.667 FPS (1152 SPF)
Compression mode : Lossy
Stream size : 102 MiB (5%)
Title : Максим Подзігун
Language : Ukrainian
Default : Yes
Forced : Yes

Audio #2
ID : 3
Format : LC
Format/Info : Advanced Audio Codec Low Complexity
Codec ID : A_AAC-2
Duration : 1 h 14 min
Bit rate : 61.7 kb/s
Channel(s) : 2 channels
Channel layout : L R
Sampling rate : 44.1 kHz
Frame rate : 43.066 FPS (1024 SPF)
Compression mode : Lossy
Stream size : 32.8 MiB (1%)
Language : English
Default : No
Forced : No
Скріншоти:



Зведення: sergiyko


 Трекер:    Зареєстрований   

Завантажити / скачати торрент



відео для новачків



 Зареєстрований:   2019-05-25 19:10
 Розмір:   2.21 GB 
 Оцінка:   9.9/10 (Голосів: 17)
   
VicCob 
Свій


З нами з: 16.06.10
Востаннє: 25.10.20
Повідомлень: 58

2019-05-25 20:04  
Чому не було гран-прі Іспанії?
DimitriosXO 
Новенький


З нами з: 06.07.17
Востаннє: 29.10.20
Повідомлень: 8

2019-05-25 20:06  
Дякую. А фулхд буде невдовзі?
quick_shot 
Частий відвідувач


З нами з: 30.09.16
Востаннє: 25.10.20
Повідомлень: 25

2019-05-25 20:20  
Качаю!Дякую за працю!
Umbrella.Corps 
Свій


З нами з: 09.04.17
Востаннє: 28.10.20
Повідомлень: 61

2019-05-26 17:15  
чекаемо на гонку)
armogun 
Попереджень: 1
Попереджень: 1 


З нами з: 04.05.13
Востаннє: 27.10.20
Повідомлень: 701

2019-05-27 14:52  
Дуже цікава, лол скудерія, кваліфікація
Ваш часовий пояс: GMT + 2 Години

Нова тема   Відповісти