Гвендолін / Gwendoline / The Perils of Gwendoline in the Land of the Yik-Yak (1984) Ukr/Fre

Нові коментарі

Нова тема   Відповісти
Автор Повідомлення
Arch Enemy 
VIP


З нами з: 30.08.12
Востаннє: 25.06.19
Повідомлень: 1665

2019-05-25 20:05  
Гвендолін / Gwendoline / The Perils of Gwendoline in the Land of the Yik-Yak (1984) Ukr/Fre


Вікове обмеження: 18+

Жанр: пригоди, фантастика, еротика, комедія
Країна: Франція



Кінокомпанії: Films de L'Alma, G.P.F.I., Parafrance Films
Режисер: Жуст Жекін
Актори: Тауні Кітаєн, Брент Хафф, Ізабель (Забу) Брайтман, Бернадетт Лафон, Жан Ружері та інші.

Сюжет:
Пригодницький фільм від творця фільмів «Еммануель» і «Історія Про» оповідає про пригоди двох європейських дівчат — пані (юної вихованки монастиря, яка вирушила на пошуки батька в далекий Китай) і її служниці — у краю Їк-Як, населеному химерними мешканками — амазонками.

Дівчат супроводжує молодий і привабливий контрабандист Віллард, який врятував їх від ґвалтівників. Він вирішує допомогти Гвен знайти батька і рідкісного метелика, у пошуках якого той відправився в Китай. Мешканки Їк-Як живуть замкнено, тож кожен чоловік, який прибуває до них, стає бажаною здобиччю.


Тривалість: 1год. 40хв. 21сек.
Якість:

Відео:
кодек: Н.264
розмір кадру: 864x368
бітрейт: ~1900 кбіт/сек.
контейнер:

Аудіо # 1:
мова: українська
озвучення: двоголосе закадрове
кодек: АС3 5.1
бітрейт: 448 кбіт/сек.

Аудіо # 2:
мова: французька
озвучення: оригінал
кодек: АС3 5.1
бітрейт: 448 кбіт/сек.
Info
General
Unique ID : 46296929308864626492389065675873234297 (0x22D476D90446DCA7DEB96F149428AD79)
Complete name : D:\Films\Gwendoline.1984..
Format :
Format version : Version 4 / Version 2
File size : 1.97 GiB
Duration : 1 h 40 min
Overall bit rate : 2 809 kb/s
Movie name : The Perils of Gwendoline in the Land of the Yik Yak (1984)
Encoded date : UTC 2019-05-25 16:35:48
Writing application : v26.0.0 ('In The Game') 64-bit
Writing library : libebml v1.3.6 + v1.4.9

Video
ID : 1
Format : AVC
Format/Info : Advanced Video Codec
Format profile : [email protected]
Format settings : CABAC / 3 Ref Frames
Format settings, CABAC : Yes
Format settings, ReFrames : 3 frames
Codec ID : V_MPEG4/ISO/AVC
Duration : 1 h 40 min
Bit rate : 1 912 kb/s
Width : 864 pixels
Height : 368 pixels
Display aspect ratio : 2.35:1
Frame rate mode : Constant
Frame rate : 25.000 FPS
Color space : YUV
Chroma subsampling : 4:2:0
Bit depth : 8 bits
Scan type : Progressive
Bits/(Pixel*Frame) : 0.241
Stream size : 1.34 GiB (68%)
Title : Gwendoline (1984)
Writing library : core 68 r1183M f21daff
Encoding settings : cabac=1 / ref=3 / deblock=1:0:0 / analyse=0x3:0x113 / me=umh / subme=7 / psy_rd=1.0:0.0 / mixed_ref=1 / me_range=14 / chroma_me=1 / trellis=2 / 8x8dct=1 / cqm=0 / deadzone=21,11 / chroma_qp_offset=-2 / threads=3 / nr=0 / decimate=1 / mbaff=0 / bframes=3 / b_pyramid=0 / b_adapt=2 / b_bias=0 / direct=3 / wpredb=1 / keyint=250 / keyint_min=25 / scenecut=40 / rc=2pass / bitrate=1912 / ratetol=1.0 / qcomp=0.50 / qpmin=10 / qpmax=51 / qpstep=4 / cplxblur=20.0 / qblur=0.5 / vbv_maxrate=24000 / vbv_bufsize=24000 / ip_ratio=1.10 / pb_ratio=1.10 / aq=1:1.00
Language : English
Default : Yes
Forced : Yes

Audio #1
ID : 2
Format : AC-3
Format/Info : Audio Coding 3
Commercial name : Dolby Digital
Codec ID : A_AC3
Duration : 1 h 40 min
Bit rate mode : Constant
Bit rate : 448 kb/s
Channel(s) : 6 channels
Channel layout : L R C LFE Ls Rs
Sampling rate : 48.0 kHz
Frame rate : 31.250 FPS (1536 SPF)
Bit depth : 16 bits
Compression mode : Lossy
Stream size : 322 MiB (16%)
Title : AniUA DVO
Language : Ukrainian
Service kind : Complete Main
Default : Yes
Forced : Yes

Audio #2
ID : 3
Format : AC-3
Format/Info : Audio Coding 3
Commercial name : Dolby Digital
Codec ID : A_AC3
Duration : 1 h 40 min
Bit rate mode : Constant
Bit rate : 448 kb/s
Channel(s) : 6 channels
Channel layout : L R C LFE Ls Rs
Sampling rate : 48.0 kHz
Frame rate : 31.250 FPS (1536 SPF)
Bit depth : 16 bits
Compression mode : Lossy
Stream size : 321 MiB (16%)
Title : Original
Language : French
Service kind : Complete Main
Default : No
Forced : No
Скріншоти


Озвучено за фінансової підтримки NemoInFire


Джерело озвучення та релізу: AniUA


Авторський реліз (завантажувати можна без реєстрації)
 Трекер:    Зареєстрований   

Завантажити / скачати фільм українською



відео для новачків



 Зареєстрований:   2019-05-25 20:05
 Розмір:   1.97 GB 
 Оцінка фільму:   10/10 (Голосів: 5)
   
don pedro 
Попереджень: 1
Попереджень: 1 


З нами з: 29.06.11
Востаннє: 26.06.19
Повідомлень: 13870

2019-05-25 20:16  
Безглуздий, але красивий фільм.
Ваш часовий пояс: GMT + 2 Години

Нова тема   Відповісти