Завзяті шахраї / The Con Is On (2018) 1080p H.265 Ukr/Eng | Sub Eng

Нові коментарі

Нова тема   Відповісти
Автор Повідомлення
Anonymous 







2019-05-25 16:19  
Завзяті шахраї / The Con Is On (2018) 1080p H.265 Ukr/Eng | Sub Eng

Завзяті шахраї / The Con Is On (2018) 1080p H.265 Ukr/Eng | Sub Eng


Жанр: комедія
Країна: США, Велика Британія
Кінокомпанія: Autumn Productions, BondIt, Buffalo 8 Productions
Режисер: Джеймс Оклі
Актори: Паркер Поузі, Еліс Ів, Ума Турман, Тім Рот, Меггі К'ю, Софія Вергара, Ешлі Уільямс, Кріспін Гловер, Стівен Фрай

Сюжет:
Британська подружня пара Гарріет і Пітер Фокси, рятуючись від переслідування гангстера, якому вони програли в карти велику суму, відправляється до Лос-Анджелесу. Розуміючи, що гангстер, якому вони заборгували, не залишить їх у спокої, подружжя розробляє план викрадення коштовностей, в якому повинні взяти участь колишня дружина Пітера і її новий чоловік.

Тривалість: 01:35:10
Якість:
Відео:
кодек: H.265 (HEVC)
розмір кадру: 1920 x 800
бітрейт: 6 749 кб/с
бітова глибина: 10 біт
Увага! Перед завантаженням переконайтесь, що ваш пристрій відтворення (та/або ПЗ) підтримує H.265 (HEVC)

Аудіо # 1:
мова: українська
переклад: професійний дубльований
кодек: AC-3 2.0
бітрейт: 192 кб/с

Аудіо # 2:
мова: англійська
переклад: оригінал
кодек: AC-3 5.1
бітрейт: 640 кб/с

Субтитри # 1:
мова: англійська (Full),
тип: програмні (м'які)
формат: *.srt

Субтитри # 2:
мова: англійська (SDH),
тип: програмні (м'які)
формат: *.srt


Info
Код:
General
Unique ID                                : 304512641165967190176480920186640304907 (0xE517005C2ECD0D465FAE9221D8828B0B)
Complete name                            : F:\Video\The Con is On (2018) 1080p H.265 [UKR_ENG] [Hurtom].
Format                                   :
Format version                           : Version 4 / Version 2
File size                                : 5.04 GiB
Duration                                 : 1 h 35 min
Overall bit rate                         : 7 571 kb/s
Movie name                               : Завзяті шахраї / The Con Is On (2018)
Encoded date                             : UTC 2019-05-25 12:21:53
Writing application                      : v20.0.0 ('I Am The Sun') 64-bit
Writing library                          : libebml v1.3.5 + v1.4.8
Cover                                    : Yes
Attachments                              : cover

Video
ID                                       : 1
Format                                   : HEVC
Format/Info                              : High Efficiency Video Coding
Format profile                           : Main [email protected]@High
Codec ID                                 : V_MPEGH/ISO/HEVC
Duration                                 : 1 h 35 min
Bit rate                                 : 6 749 kb/s
Width                                    : 1 920 pixels
Height                                   : 800 pixels
Display aspect ratio                     : 2.40:1
Frame rate mode                          : Constant
Frame rate                               : 23.976 (24000/1001) FPS
Color space                              : YUV
Chroma subsampling                       : 4:2:0
Bit depth                                : 10 bits
Bits/(Pixel*Frame)                       : 0.183
Stream size                              : 4.49 GiB (89%)
Title                                    : Завзяті шахраї / The Con Is On (2018)
Language                                 : English
Default                                  : Yes
Forced                                   : No
Color range                              : Limited
Color primaries                          : BT.709
Transfer characteristics                 : BT.709
Matrix coefficients                      : BT.709

Audio #1
ID                                       : 2
Format                                   : AC-3
Format/Info                              : Audio Coding 3
Codec ID                                 : A_AC3
Duration                                 : 1 h 35 min
Bit rate mode                            : Constant
Bit rate                                 : 192 kb/s
Channel(s)                               : 2 channels
Channel positions                        : Front: L R
Sampling rate                            : 48.0 kHz
Frame rate                               : 31.250 FPS (1536 SPF)
Bit depth                                : 16 bits
Compression mode                         : Lossy
Stream size                              : 131 MiB (3%)
Title                                    : ПД - 2.0 @ 192 kbps
Language                                 : Ukrainian
Service kind                             : Complete Main
Default                                  : Yes
Forced                                   : Yes

Audio #2
ID                                       : 3
Format                                   : AC-3
Format/Info                              : Audio Coding 3
Codec ID                                 : A_AC3
Duration                                 : 1 h 35 min
Bit rate mode                            : Constant
Bit rate                                 : 640 kb/s
Channel(s)                               : 6 channels
Channel positions                        : Front: L C R, Side: L R, LFE
Sampling rate                            : 48.0 kHz
Frame rate                               : 31.250 FPS (1536 SPF)
Bit depth                                : 16 bits
Compression mode                         : Lossy
Stream size                              : 436 MiB (8%)
Title                                    : Original - 5.1 @ 640 kbps
Language                                 : English
Service kind                             : Complete Main
Default                                  : No
Forced                                   : No

Text #1
ID                                       : 4
Format                                   : UTF-8
Codec ID                                 : S_TEXT/UTF8
Codec ID/Info                            : UTF-8 Plain Text
Duration                                 : 1 h 28 min
Bit rate                                 : 54 b/s
Count of elements                        : 1137
Stream size                              : 35.5 KiB (0%)
Title                                    : Full
Language                                 : English
Default                                  : Yes
Forced                                   : No

Text #2
ID                                       : 5
Format                                   : UTF-8
Codec ID                                 : S_TEXT/UTF8
Codec ID/Info                            : UTF-8 Plain Text
Duration                                 : 1 h 34 min
Bit rate                                 : 57 b/s
Count of elements                        : 1300
Stream size                              : 39.5 KiB (0%)
Title                                    : SDH
Language                                 : English
Default                                  : No
Forced                                   : No

Menu
00:00:00.000                             : en:Chapter 1
00:06:30.139                             : en:Chapter 2
00:12:33.461                             : en:Chapter 3
00:17:43.562                             : en:Chapter 4
00:23:38.250                             : en:Chapter 5
00:28:46.641                             : en:Chapter 6
00:36:22.722                             : en:Chapter 7
00:42:06.357                             : en:Chapter 8
00:48:10.012                             : en:Chapter 9
00:54:41.861                             : en:Chapter 10
00:59:12.298                             : en:Chapter 11
01:05:19.707                             : en:Chapter 12
01:09:29.665                             : en:Chapter 13
01:16:00.764                             : en:Chapter 14
01:22:38.370                             : en:Chapter 15
01:27:33.456                             : en:Chapter 16
Світлини





Підтримати купівлю інших фільмів можна тут.

Подяка пану AngryBirdsUA за доріжку та пану Arsenfpu за синхронізацію.

Джерело: &
Особиста оцінка: 0 - не дивився


 Трекер:    Зареєстрований   

Завантажити / скачати фільм українською



відео для новачків



 Зареєстрований:   2019-05-25 16:19
 Розмір:   5.04 GB 
 Оцінка фільму:   7/10 (Голосів: 4)
   
Інші релізи
Ваш часовий пояс: GMT + 2 Години

Нова тема   Відповісти