У Філадельфії завжди сонячно (Сезони 12-14) / It's Always Sunny in Philadelphia (Seasons 12-14) (2017-2019) 1080p Ukr/Eng | sub Eng

Нові коментарі

Нова тема   Відповісти
Автор Повідомлення
Anonymous 







2019-05-25 10:01  
У Філадельфії завжди сонячно (Сезони 12-14) / It's Always Sunny in Philadelphia (Seasons 12-14) (2017-2019) 1080p Ukr/Eng | sub Eng

У Філадельфії завжди сонячно (Сезони 12-14) / It's Always Sunny in Philadelphia (Seasons 12-14) (2017-2019) 1080p Ukr/Eng | sub Eng


Жанр: комедія
Країна: США



Кінокомпанія: Bluebush Productions, 3 Arts Entertainment, FX Productions
Режисер: Гленн Ховертон (Glenn Howerton), Роб МакЕлхенні (Rob McElhenney) та інші
Актори: Чарлі Дей (Charlie Day), Гленн Ховертон (Glenn Howerton), Роб МакЕлхенні (Rob McElhenney), Кейтлін Олсон (Kaitlin Olson), Денні ДеВіто (Danny DeVito) та інші

Сюжет:
Четверо молодих друзів, що управляють ірландським пабом у Філадельфії, намагаються знайти свій шлях у дорослий світ роботи та стосунків. На жаль, їхній своєрідний світогляд і сумнівні судження часто завдають їм неприємностей, створюючи величезне кількість незручних ситуацій.


Тривалість: 1 серія: ~21 хв. (цілком серій: 30)
Перелік серій
Сезон 12
01) The Gang Turns Black
02) The Gang Goes to a Water Park
03) Old Lady House: A Situation Comedy
04) Wolf Cola: A Public Relations Nightmare
05) Making Dennis Reynolds a Murderer
06) Hero or Hate Crime?
07) PTSDee
08) The Gang Tends Bar
09) A Cricket's Tale
10) Dennis' Double Life
Сезон 13
01) The Gang Makes Paddy's Great Again
02) The Gang Escapes
03) The Gang Beats Boggs Ladies Reboot
04) Time's Up for the Gang
05) The Gang Gets New Wheels
06) The Gang Solves the Bathroom Problem
07) The Gang Does a Clip Show
08) Charlie's Home Alone
09) The Gang Wins the Big Game
10) Mac Finds His Pride
Сезон 14
01) The Gang Gets Romantic
02) Thunder Gun 4: Maximum Cool
03) Dee Day
04) The Gang Chokes
05) The Gang Texts
06) The Janitor Always Mops Twice
07) The Gang Solves Global Warming
08) Paddy's Has a Jumper
09) A Woman's Right to Chop
10) Waiting for Big Mo
Якість: 1080p
Відео:
кодек:
розмір кадру: 1920 х 1080
бітрейт: ~10 Мб/с

Аудіо # 1:
мова: українська
переклад: багатоголосий закадровий | Paramount Comedy
кодек: 2.0
бітрейт: 192 кб/с

Аудіо # 2:
мова: англійська
переклад: оригінал
кодек: E- 2.0 (сезон 12) / 5.1 (сезони 13-14)
бітрейт: 224 кб/с (сезон 12) / 640 кб/с (сезони 13-14)

Субтитри (форсовані, переклад тексту):
мова: українська
тип: програмні (м'які)
формат: *.srt
примітка: тільки у серіях 14x05, 14x10

Субтитри:
мова: англійська
тип: програмні (м'які)
формат: *.srt
Info
Сезон 12
General
Unique ID : 125125184074782758600001605563112172383 (0x5E223BDF9A552548D4369FBEA9172B5F)
Complete name : F:\Support\series\It's Always Sunny in Philadelphia [, 1080p, Ukr, Eng]\Season 12\It's Always Sunny In Philadelphia. S12E01. The Gang Turns Black.
Format :
Format version : Version 4
File size : 1.68 GiB
Duration : 22 min 10 s
Overall bit rate mode : Variable
Overall bit rate : 10.9 Mb/s
Encoded date : UTC 2019-12-07 15:22:19
Writing application : v41.0.0 ('Smarra') 64-bit
Writing library : libebml v1.3.9 + v1.5.2

Video
ID : 1
Format : AVC
Format/Info : Advanced Video Codec
Format profile : [email protected]
Format settings : CABAC / 4 Ref Frames
Format settings, CABAC : Yes
Format settings, Reference : 4 frames
Codec ID : V_MPEG4/ISO/AVC
Duration : 22 min 10 s
Bit rate mode : Variable
Bit rate : 10.4 Mb/s
Maximum bit rate : 15.0 Mb/s
Width : 1 920 pixels
Height : 1 080 pixels
Display aspect ratio : 16:9
Frame rate mode : Constant
Frame rate : 23.976 (24000/1001) FPS
Color space : YUV
Chroma subsampling : 4:2:0
Bit depth : 8 bits
Scan type : Progressive
Bits/(Pixel*Frame) : 0.210
Stream size : 1.62 GiB (96%)
Language : English
Default : Yes
Forced : No
Color range : Limited
Color primaries : BT.709
Transfer characteristics : BT.709
Matrix coefficients : BT.709

Audio #1
ID : 2
Format : AC-3
Format/Info : Audio Coding 3
Commercial name : Dolby Digital
Codec ID : A_AC3
Duration : 22 min 10 s
Bit rate mode : Constant
Bit rate : 192 kb/s
Channel(s) : 2 channels
Channel layout : L R
Sampling rate : 48.0 kHz
Frame rate : 31.250 FPS (1536 SPF)
Compression mode : Lossy
Stream size : 30.4 MiB (2%)
Title : Paramount Comedy
Language : Ukrainian
Service kind : Complete Main
Default : Yes
Forced : No

Audio #2
ID : 3
Format : E-AC-3
Format/Info : Enhanced AC-3
Commercial name : Dolby Digital Plus
Codec ID : A_EAC3
Duration : 22 min 10 s
Bit rate mode : Constant
Bit rate : 224 kb/s
Channel(s) : 2 channels
Channel layout : L R
Sampling rate : 48.0 kHz
Frame rate : 31.250 FPS (1536 SPF)
Compression mode : Lossy
Delay relative to video : 5 ms
Stream size : 35.5 MiB (2%)
Language : English
Service kind : Complete Main
Default : No
Forced : No

Text
ID : 4
Format : UTF-8
Codec ID : S_TEXT/UTF8
Codec ID/Info : UTF-8 Plain Text
Duration : 22 min 7 s
Bit rate : 127 b/s
Count of elements : 611
Stream size : 20.7 KiB (0%)
Language : English
Default : No
Forced : No

Menu
00:00:00.000 : en:Movie night
00:01:24.149 : en:The next morning
00:02:07.149 : en:Opening Credits
00:02:29.149 : en:The group decides to split up and investigate
00:05:20.149 : en:Dennis can't find his keys
00:07:00.149 : en:Break
00:07:01.149 : en:Dee and Frank set out to find old black man
00:09:45.149 : en:Station questioning
00:12:37.149 : en:Return to the nursing home
00:15:10.149 : en:The group meets up in the alley
00:17:17.149 : en:Break
00:17:18.149 : en:To the wiz
00:20:31.149 : en:Go home
00:21:23.149 : en:End Credits
00:22:10.149 : en:Next On
Сезон 13
General
Unique ID : 170364630756580152099299689478555660257 (0x802B08CD6166594F6CF81A837EE76FE1)
Complete name : F:\Support\series\It's Always Sunny in Philadelphia (Season 13) [, 1080p, Ukr, Eng]\It's Always Sunny in Philadelphia. S13E01. The Gang Makes Paddy's Great Again.
Format :
Format version : Version 4
File size : 1.51 GiB
Duration : 21 min 43 s
Overall bit rate : 9 978 kb/s
Encoded date : UTC 2019-05-24 20:44:24
Writing application : v34.0.0 ('Sight and Seen') 64-bit
Writing library : libebml v1.3.7 + v1.5.0

Video
ID : 1
Format : AVC
Format/Info : Advanced Video Codec
Format profile : [email protected]
Format settings : CABAC / 4 Ref Frames
Format settings, CABAC : Yes
Format settings, ReFrames : 4 frames
Codec ID : V_MPEG4/ISO/AVC
Duration : 21 min 43 s
Bit rate : 9 143 kb/s
Width : 1 920 pixels
Height : 1 080 pixels
Display aspect ratio : 16:9
Frame rate mode : Constant
Frame rate : 23.976 (24000/1001) FPS
Color space : YUV
Chroma subsampling : 4:2:0
Bit depth : 8 bits
Scan type : Progressive
Bits/(Pixel*Frame) : 0.184
Stream size : 1.39 GiB (92%)
Language : English
Default : Yes
Forced : No
Color range : Limited
Color primaries : BT.709
Transfer characteristics : BT.709
Matrix coefficients : BT.709

Audio #1
ID : 2
Format : AC-3
Format/Info : Audio Coding 3
Commercial name : Dolby Digital
Codec ID : A_AC3
Duration : 21 min 43 s
Bit rate mode : Constant
Bit rate : 192 kb/s
Channel(s) : 2 channels
Channel layout : L R
Sampling rate : 48.0 kHz
Frame rate : 31.250 FPS (1536 SPF)
Bit depth : 16 bits
Compression mode : Lossy
Stream size : 29.8 MiB (2%)
Title : Paramount Comedy
Language : Ukrainian
Service kind : Complete Main
Default : Yes
Forced : No

Audio #2
ID : 3
Format : E-AC-3
Format/Info : Enhanced AC-3
Commercial name : Dolby Digital Plus
Codec ID : A_EAC3
Duration : 21 min 43 s
Bit rate mode : Constant
Bit rate : 640 kb/s
Channel(s) : 6 channels
Channel layout : L R C LFE Ls Rs
Sampling rate : 48.0 kHz
Frame rate : 31.250 FPS (1536 SPF)
Compression mode : Lossy
Delay relative to video : 7 ms
Stream size : 99.4 MiB (6%)
Language : English
Service kind : Complete Main
Default : No
Forced : No

Text
ID : 4
Format : UTF-8
Codec ID : S_TEXT/UTF8
Codec ID/Info : UTF-8 Plain Text
Duration : 21 min 41 s
Bit rate : 144 b/s
Count of elements : 588
Stream size : 23.0 KiB (0%)
Language : English
Default : No
Forced : No
Сезон 14
General
Unique ID : 30717740967184658616589512227298206273 (0x171C058F21A909E7F8E6ADFF62BBE241)
Complete name : F:\Support\series\It's Always Sunny in Philadelphia [, 1080p, Ukr, Eng]\Season 14\It's Always Sunny in Philadelphia. S14E05. The Gang Texts.
Format :
Format version : Version 4
File size : 1.57 GiB
Duration : 22 min 10 s
Overall bit rate : 10.1 Mb/s
Encoded date : UTC 2020-02-09 16:25:25
Writing application : v42.0.0 ('Overtime') 64-bit
Writing library : libebml v1.3.10 + v1.5.2

Video
ID : 1
Format : AVC
Format/Info : Advanced Video Codec
Format profile : [email protected]
Format settings : CABAC / 4 Ref Frames
Format settings, CABAC : Yes
Format settings, Reference : 4 frames
Codec ID : V_MPEG4/ISO/AVC
Duration : 22 min 10 s
Bit rate mode : Constant
Bit rate : 9 301 kb/s
Nominal bit rate : 10 000 kb/s / 7 433 kb/s
Width : 1 920 pixels
Height : 1 080 pixels
Display aspect ratio : 16:9
Frame rate mode : Constant
Frame rate : 23.976 (24000/1001) FPS
Color space : YUV
Chroma subsampling : 4:2:0
Bit depth : 8 bits
Scan type : Progressive
Bits/(Pixel*Frame) : 0.187
Stream size : 1.44 GiB (92%)
Writing library : core 152 r2245
Encoding settings : cabac=1 / ref=4 / deblock=1:0:0 / analyse=0x3:0x113 / me=hex / subme=4 / psy=1 / psy_rd=1.00:0.00 / mixed_ref=0 / me_range=16 / chroma_me=1 / trellis=1 / 8x8dct=1 / cqm=0 / deadzone=21,11 / fast_pskip=1 / chroma_qp_offset=-3 / threads=6 / lookahead_threads=1 / sliced_threads=0 / nr=0 / decimate=1 / interlaced=0 / bluray_compat=0 / constrained_intra=0 / bframes=3 / b_pyramid=2 / b_adapt=1 / b_bias=0 / direct=1 / weightb=1 / open_gop=0 / weightp=1 / keyint=48 / keyint_min=4 / scenecut=0 / intra_refresh=0 / rc_lookahead=20 / rc=abr / mbtree=1 / bitrate=7433 / ratetol=1.0 / qcomp=0.60 / qpmin=0 / qpmax=69 / qpstep=4 / vbv_maxrate=10000 / vbv_bufsize=31250 / nal_hrd=none / filler=0 / ip_ratio=1.40 / aq=1:1.00
Language : English
Default : Yes
Forced : No
Color range : Limited
Color primaries : BT.709
Transfer characteristics : BT.709
Matrix coefficients : BT.709

Audio #1
ID : 2
Format : AC-3
Format/Info : Audio Coding 3
Commercial name : Dolby Digital
Codec ID : A_AC3
Duration : 22 min 10 s
Bit rate mode : Constant
Bit rate : 192 kb/s
Channel(s) : 2 channels
Channel layout : L R
Sampling rate : 48.0 kHz
Frame rate : 31.250 FPS (1536 SPF)
Compression mode : Lossy
Stream size : 30.4 MiB (2%)
Title : Paramount Comedy
Language : Ukrainian
Service kind : Complete Main
Default : Yes
Forced : No

Audio #2
ID : 3
Format : E-AC-3
Format/Info : Enhanced AC-3
Commercial name : Dolby Digital Plus
Codec ID : A_EAC3
Duration : 22 min 10 s
Bit rate mode : Constant
Bit rate : 640 kb/s
Channel(s) : 6 channels
Channel layout : L R C LFE Ls Rs
Sampling rate : 48.0 kHz
Frame rate : 31.250 FPS (1536 SPF)
Compression mode : Lossy
Delay relative to video : 200 ms
Stream size : 102 MiB (6%)
Language : English
Service kind : Complete Main
Default : No
Forced : No

Text #1
ID : 4
Format : UTF-8
Codec ID : S_TEXT/UTF8
Codec ID/Info : UTF-8 Plain Text
Duration : 21 min 13 s
Bit rate : 24 b/s
Count of elements : 55
Stream size : 3.77 KiB (0%)
Language : Ukrainian
Default : Yes
Forced : Yes

Text #2
ID : 5
Format : UTF-8
Codec ID : S_TEXT/UTF8
Codec ID/Info : UTF-8 Plain Text
Duration : 22 min 7 s
Bit rate : 123 b/s
Count of elements : 564
Stream size : 20.0 KiB (0%)
Language : English
Default : No
Forced : No
Скріншоти

Українську доріжку та форсовані субтитри взято з релізу https://toloka.to/t101267

Джерело: &
Особиста оцінка: 0 - не дивився





Срібний реліз (на рейтинг впливає 50% завантаженого)
 Трекер:    Зареєстрований   

Завантажити / скачати серіал українською



відео для новачків



 Зареєстрований:   2020-02-09 20:31
 Розмір:   47.98 GB 
 Оцінка серіалу:   10/10 (Голосів: 5)
   
Anonymous 







2019-12-07 20:01  
Додав 12-й сезон.
SurFutur 
VIP


З нами з: 12.03.15
Востаннє: 29.11.20
Повідомлень: 512

2020-01-23 02:36  
Anonymous написано:
Серію 12х08 канал поки не показав

Сьогодні та завтра згідно з телепрограмою мають показати: https://toloka.to/t6081-12420#1150360

Anonymous 







2020-02-08 23:16  
Додав серію 12x08.
Anonymous 







2020-02-09 20:31  
Додав 14-й сезон.
Ваш часовий пояс: GMT + 2 Години

Нова тема   Відповісти