Гра Престолів (Сезон 8) / Game of Thrones (Season 8) (2019) AVC

Нові коментарі

Нова тема   Відповісти
Останній раз роздавалося tarasito (2019-06-17)
Автор Повідомлення
korosta 
Частий відвідувач


З нами з: 18.10.12
Востаннє: 16.06.19
Повідомлень: 42

2019-05-24 20:44  
Гра Престолів (Сезон 8) / Game of Thrones (Season 8) (2019) AVC

Гра Престолів (Сезон 8) / Game of Thrones (Season 8) (2019) AVC


Жанр: пригодницький, драма, фентезі
Країна: США


Кінокомпанія / телеканал: Home Box Office (HBO), Television 360, Grok! Studio
Режисер: Девід Беніофф / David Benioff, Ден Вайс / D.B. Weiss
Актори/ролі озвучують: Пітер Дінклейдж / Peter Dinklage, Ніколай Костер-Валдау / Nikolaj Coster-Waldau, Ліна Гіді / Lena Headey, Кіт Герінґтон / Kit Harington, Емілія Кларк / Emilia Clarke, Ліам Каннінґем / Liam Cunningham, Софі Тернер / Sophie Turner та інші

Сюжет:
Останній сезон "Гри престолів" починається у Вінтерфелі, куди прибувають Дейнеріс і її воїни, готові захопити Залізний престол. З півночі насувається армія мертвих, яку очолює Король ночі. Якщо люди не зможуть об'єднатись, то настане вічна зима.

Info

Format : MPEG-4
Format profile : Base Media
Codec ID : isom (isom/iso2/avc1/mp41)
File size : 233 MiB
Duration : 55 min 4 s
Overall bit rate mode : Variable
Overall bit rate : 592 kb/s
Writing application : Lavf54.63.104

Video
ID : 1
Format : AVC
Format/Info : Advanced Video Codec
Format profile : [email protected]
Format settings : CABAC / 1 Ref Frames
Format settings, CABAC : Yes
Format settings, ReFrames : 1 frame
Codec ID : avc1
Codec ID/Info : Advanced Video Coding
Duration : 55 min 4 s
Duration_FirstFrame : 42 ms
Bit rate : 512 kb/s
Width : 720 pixels
Height : 400 pixels
Display aspect ratio : 16:9
Frame rate mode : Constant
Frame rate : 23.976 (24000/1001) FPS
Color space : YUV
Chroma subsampling : 4:2:0
Bit depth : 8 bits
Scan type : Progressive
Bits/(Pixel*Frame) : 0.074
Stream size : 201 MiB (86%)
Writing library : core 129
Encoding settings : cabac=1 / ref=1 / deblock=1:0:0 / analyse=0x1:0x131 / me=dia / subme=2 / psy=1 / psy_rd=1.00:0.00 / mixed_ref=0 / me_range=16 / chroma_me=1 / trellis=0 / 8x8dct=0 / cqm=0 / deadzone=21,11 / fast_pskip=1 / chroma_qp_offset=0 / threads=4 / lookahead_threads=1 / sliced_threads=0 / nr=0 / decimate=1 / interlaced=0 / bluray_compat=0 / constrained_intra=0 / bframes=0 / weightp=2 / keyint=250 / keyint_min=25 / scenecut=40 / intra_refresh=0 / rc_lookahead=40 / rc=abr / mbtree=1 / bitrate=512 / ratetol=1.0 / qcomp=0.60 / qpmin=10 / qpmax=51 / qpstep=4 / ip_ratio=1.41 / aq=1:1.00
Codec configuration box : avcC

Audio
ID : 2
Format : LC
Format/Info : Advanced Audio Codec Low Complexity
Codec ID : mp4a-40-2
Duration : 55 min 4 s
Duration_FirstFrame : 70 ms
Bit rate mode : Variable
Bit rate : 76.0 kb/s
Maximum bit rate : 128 kb/s
Channel(s) : 1 channel
Channel layout : C
Sampling rate : 44.1 kHz
Frame rate : 43.066 FPS (1024 SPF)
Compression mode : Lossy
Stream size : 29.9 MiB (13%)
Default : Yes
Alternate group : 1
Тривалість: 1 серія: ~50-80 (цілком серій: 6)
Перелік серій
1. Вінтерфелл / Winterfell
2. Лицар семи королівств / A Knight of the Seven Kingdoms
3. Довга ніч / The Long Night
4. Останні з Старків / The Last of the Starks
5. Дзвони / The Bells
6. Залізний трон / The Iron Throne
Якість:
Відео:
кодек:
розмір кадру: 720 х 400
бітрейт: 512 кб/с

Аудіо:
мова: українська
переклад: професійний багатоголосий закадровий
кодек: 2.0
бітрейт: 128 кб/с

Озвучено студією НеЗупиняйПродакшн
Скріншоти







Джерело:
Особиста оцінка: 10 - без зайвих вагань рекомендую всім!


Авторський реліз (завантажувати можна без реєстрації)
 Трекер:    Зареєстрований   

Завантажити / скачати торрент



відео для новачків



 Зареєстрований:   2019-05-24 20:44
 Розмір:   1.79 GB 
 Оцінка:   8.8/10 (Голосів: 8)
   
Electroz 
Відео Гуртом - підтримка та поширення
Відео Гуртом - підтримка та поширення


З нами з: 18.09.14
Востаннє: 16.06.19
Повідомлень: 3414

2019-05-24 20:57  
Для чого цей реліз, якщо є краща якість?
korosta 
Частий відвідувач


З нами з: 18.10.12
Востаннє: 16.06.19
Повідомлень: 42

2019-05-24 20:59  
Не може перенести теми з Телесеріали до форуму Відео для мобільних (iOS, Android, Windows Phone). Будь-ласка перенесіть, буду вдячний.
bot 
робот


З нами з: 30.09.07
Востаннє: 26.05.05
Повідомлень: 21517

2019-05-24 21:03  
Тему перенесено з Телесеріали до форуму Відео для мобільних (iOS, Android, Windows Phone)


korosta

korosta 
Частий відвідувач


З нами з: 18.10.12
Востаннє: 16.06.19
Повідомлень: 42

2019-05-24 21:03  
отHappy це для андроїдів і тдHappy
Anоnymous 
VIP


З нами з: 25.08.18
Востаннє: 04.06.19
Повідомлень: 808

2019-05-24 22:08  
korosta написано:
професійний дубльований

не професійний дубльований

Додано через 44 секунди:

для чого такі релізи?
сумнівно що хтось буде дивитися серіал на кнопочному телефоні

Додано через 27 секунд:

з 1-2 дюймовим дисплеєм

korosta 
Частий відвідувач


З нами з: 18.10.12
Востаннє: 16.06.19
Повідомлень: 42

2019-05-24 23:54  
Anоnymous
читай пост вище

Anоnymous 
VIP


З нами з: 25.08.18
Востаннє: 04.06.19
Повідомлень: 808

2019-05-25 11:11  
korosta написано:
от це для андроїдів і тд

Зараз андроїди в 4к можуть відтворювати

pohgejib 
VIP


З нами з: 06.06.08
Востаннє: 14.06.19
Повідомлень: 365

2019-06-05 16:54  
Релізери, в чому проблема робити релізи для мобільних на кодеку х265? З цим бітрейтом пішло б 1024*576...
Ваш часовий пояс: GMT + 2 Години

Нова тема   Відповісти