Загін 10 з Наварон / Force 10 from Navarone (1978) Remux 1080p Ukr/Eng | Sub Eng

Нові коментарі

Нова тема   Відповісти
Автор Повідомлення
MakRA 
VIP


З нами з: 11.11.18
Востаннє: 28.09.20
Повідомлень: 1120

2019-05-23 19:10  
Загін 10 з Наварон / Force 10 from Navarone (1978) Remux 1080p Ukr/Eng | Sub Eng

Загін 10 з Наварон / Force 10 from Navarone (1978) Remux 1080p Ukr/Eng | Sub Eng

Альтернативні обкладинки:







Жанр: воєнний, екшн, драма
Країна: Великобританія



Кінокомпанія: Columbia Pictures, MGM/UA Home Entertainment
Режисер: Гай Хемілтон [Guy Hamilton]
Актори: Роберт Шоу [Robert Shaw], Гаррісон Форд [Harrison Ford], Барбара Бах [Barbara Bach], Едвард Фокс [Edward Fox], Франко Неро [Franco Nero], Карл Везерс [Carl Weathers], Річард Кіл [Richard Kiel], Алан Бадел [Alan Badel], Майкл Бірн [Michael Byrne], Філіп Летем [Philip Latham].

Сюжет:
Кліфф Меллорі, майор, і його друг-підривник Міллер викидаються з літака в Югославії, де вони повинні разом із десантним загоном полковника Барнсбі і місцевими партизанами підірвати вкрай важливий для німців мост.

Продовження фільму "Гармати з острова Наварон".


Тривалість: 02:05:51
Якість: Remux 1080p
Відео:
кодек:
розмір кадру: 1920 х 1080
бітрейт: 19,8 Мб/с

Аудіо # 1:
мова: українська
переклад: багатоголосий закадровий
кодек: 2.0
бітрейт: 192 кб/с

Аудіо # 2:
мова: англійська
переклад: оригінал
кодек: -HD MA 5.1
бітрейт: 2 855 кб/с

Субтитри:
мова: англійська
тип: програмні (м'які)
формат: *.srt

Збережено оригінальні розділи, як на Blu-ray.
Info
General
Unique ID : 114974637951760915812377859087387429512 (0x567F4F4F8DA82D719FA001AD3DF18A88)
Complete name : E:\Військовий, драма\Force 10 from Navarone (1978) Remux 1080p UkrEng Sub Eng [Hurtom].
Format :
Format version : Version 4 / Version 2
File size : 20.1 GiB
Duration : 2 h 5 min
Overall bit rate mode : Variable
Overall bit rate : 22.9 Mb/s
Movie name : Загін 10 з Наварон / Force 10 from Navarone (1978) Remux 1080p Ukr/Eng | Sub Eng [Hurtom]
Encoded date : UTC 2019-05-22 22:19:09
Writing application : v25.0.0 ('Prog Noir') 64-bit
Writing library : libebml v1.3.6 + v1.4.9

Video
ID : 1
Format : AVC
Format/Info : Advanced Video Codec
Format profile : [email protected]
Format settings, CABAC : Yes
Format settings, RefFrames : 4 frames
Codec ID : V_MPEG4/ISO/AVC
Duration : 2 h 5 min
Bit rate mode : Variable
Bit rate : 19.8 Mb/s
Maximum bit rate : 37.0 Mb/s
Width : 1 920 pixels
Height : 1 080 pixels
Display aspect ratio : 16:9
Frame rate mode : Constant
Frame rate : 23.976 (24000/1001) FPS
Color space : YUV
Chroma subsampling : 4:2:0
Bit depth : 8 bits
Scan type : Progressive
Bits/(Pixel*Frame) : 0.399
Stream size : 17.4 GiB (87%)
Title : Force 10 from Navarone (1978) Remux 1080p Ukr/Eng | Sub Eng [Hurtom]
Language : Ukrainian
Default : Yes
Forced : Yes
Color range : Limited
Color primaries : BT.709
Transfer characteristics : BT.709
Matrix coefficients : BT.709

Audio #1
ID : 2
Format : AC-3
Format/Info : Audio Coding 3
Format settings, Endianness : Big
Codec ID : A_AC3
Duration : 2 h 5 min
Bit rate mode : Constant
Bit rate : 192 kb/s
Channel(s) : 2 channels
Channel positions : Front: L R
Sampling rate : 48.0 kHz
Frame rate : 31.250 FPS (1536 SPF)
Bit depth : 16 bits
Compression mode : Lossy
Stream size : 173 MiB (1%)
Title : MVO [ENTER film] 2.0
Language : Ukrainian
Service kind : Complete Main
Default : Yes
Forced : Yes

Audio #2
ID : 3
Format :
Format/Info : Digital Theater Systems
Format profile : MA / Core
Mode : 16
Format settings, Endianness : Big
Codec ID : A_DTS
Duration : 2 h 5 min
Bit rate mode : Variable / Constant
Bit rate : 2 855 kb/s / 1 509 kb/s
Channel(s) : 6 channels
Channel positions : Front: L C R, Side: L R, LFE
Sampling rate : 48.0 kHz
Frame rate : 93.750 FPS (512 SPF)
Bit depth : 24 bits
Compression mode : Lossless / Lossy
Stream size : 2.51 GiB (12%)
Title : Original -HD MA 5.1
Language : English
Default : No
Forced : No

Text
ID : 4
Format : UTF-8
Codec ID : S_TEXT/UTF8
Codec ID/Info : UTF-8 Plain Text
Duration : 2 h 2 min
Bit rate : 40 b/s
Count of elements : 1013
Stream size : 36.1 KiB (0%)
Title : Eng
Language : English
Default : No
Forced : No

Menu
00:00:00.000 : en:00:00:00.000
00:04:05.078 : en:00:04:05.078
00:08:31.636 : en:00:08:31.636
00:15:39.230 : en:00:15:39.230
00:17:45.690 : en:00:17:45.690
00:22:59.044 : en:00:22:59.044
00:24:25.464 : en:00:24:25.464
00:28:08.478 : en:00:28:08.478
00:32:47.340 : en:00:32:47.340
00:33:10.030 : en:00:33:10.030
00:34:36.241 : en:00:34:36.241
00:37:23.658 : en:00:37:23.658
00:41:50.883 : en:00:41:50.883
00:45:04.827 : en:00:45:04.827
00:47:50.493 : en:00:47:50.493
00:53:24.451 : en:00:53:24.451
00:56:19.668 : en:00:56:19.668
01:00:10.482 : en:01:00:10.482
01:02:58.400 : en:01:02:58.400
01:05:27.549 : en:01:05:27.549
01:09:36.005 : en:01:09:36.005
01:12:56.205 : en:01:12:56.205
01:18:03.679 : en:01:18:03.679
01:20:29.199 : en:01:20:29.199
01:29:34.119 : en:01:29:34.119
01:35:59.337 : en:01:35:59.337
01:39:50.193 : en:01:39:50.193
01:44:43.444 : en:01:44:43.444
01:47:40.913 : en:01:47:40.913
01:51:14.543 : en:01:51:14.543
01:53:32.139 : en:01:53:32.139
02:01:17.770 : en:02:01:17.770
Скріншоти
Джерело: &
За українську доріжку подяка п. MAKAPOHHIK 
Особиста оцінка: 10 - без зайвих вагань рекомендую всім!


Золотий реліз (завантажене не впливає на рейтинг)
 Трекер:    Зареєстрований   

Завантажити / скачати фільм українською



відео для новачків



 Зареєстрований:   2019-05-23 19:10
 Розмір:   20.13 GB 
 Оцінка фільму:   9.4/10 (Голосів: 11)
   
Інші релізи
+380954897458 
VIP


З нами з: 02.06.17
Востаннє: 18.09.20
Повідомлень: 942

2019-05-23 23:19  
Тут українська йде поверх угорської, як у релізі на 720, чи поверх англійської?
MakRA 
VIP


З нами з: 11.11.18
Востаннє: 28.09.20
Повідомлень: 1120

2019-05-23 23:34  
+380954897458
Доріжка пана MAKAPOHHIKа, вона одна (поверх угорської).

+380954897458 
VIP


З нами з: 02.06.17
Востаннє: 18.09.20
Повідомлень: 942

2019-05-23 23:58  
MakRA
Дуже шкода. Вибачте, але воно звучить якось неприродньо і дико. Добре що є оригінальна доріжка, але було б ще краще, коли б до неї йшли українські субтитри. :-))

Ваш часовий пояс: GMT + 2 Години

Нова тема   Відповісти