Любов, смерть та роботи (Сезон 1) / Love, Death & Robots (Season 1) (2019) 1080p

Нові коментарі

Нова тема   Відповісти
Автор Повідомлення
AdrianZP 
Поважний учасник


З нами з: 28.08.14
Востаннє: 16.06.19
Повідомлень: 219

2019-05-23 17:48  
Любов, смерть та роботи (Сезон 1) / Love, Death & Robots (Season 1) (2019) 1080p

Любов, смерть та роботи (Сезон 1) / Love, Death & Robots (Season 1) (2019) 1080p


Жанр: анімація, жахи, фантастика, фентезі, комедія, бойовик, кримінал
Країна: США



Кінокомпанія: Blur Studio, NetFlix
Режисер: Віктор Малдонадо, Альфредо Торрес, Тім Міллер
Актори: Скотт Вайт, Нолан Норс, Метью Янг Кінг, Джош Бренер, Еллі Кондрон та інші

Вікове обмеження 18+

Сюжет:
Netflix здивує вас пропонуючи вам серію короткометрівок в якій поєднуються одразу кілька жанрів: фентезі, жахи, наукова фантастика, комедія. Кожна серія - це окрема історія зі своїм неповторним сюжетом. Тут можна побачити теми расизму, проблеми війни, особистих відносин, боротьби за свободу і незалежність, і багато іншого. У замальовках беруть участь найнеймовірніші персонажі. Це і роботи-мисливці за головами, інопланетні почвари, демони, перевертні, і навіть розумні продукти харчування.


Тривалість: 1 серія: 6/18 хв. (цілком серій: 18)
Перелік серій
1. Край Соні
2. Три Роботи
3. Свідок
4. Форс-мажор
5. Висмоктувач душ
6. Коли до влади прийшов Йогурт
7. За розломом Акіла
8. Славне полювання
9. Звалище
10. Перевертні
11. Рука допомоги
12. Рибна ніч
13. Щасливчик 13
14. Зима Блакить
15. Сліпа зона
16. Льодовиковий період
17. Альтернативні історії
18. Секретна війна
Якість:
Відео:
кодек:
розмір кадру: 1920 х 1080
бітрейт: ~ 4 000 / ~10 00 кб/с

Аудіо:
мова: українська
переклад: двоголосий закадровий
кодек: 5.1
бітрейт: ~ 448 кб/с
Info
1
Format :
Format version : Version 4 / Version 2
File size : 882 MiB
Duration : 17 min 14 s
Overall bit rate mode : Variable
Overall bit rate : 7 150 kb/s
Movie name : 1. Край Соні
Encoded date : UTC 2019-06-08 16:17:28
Writing application : v9.4.0 ('Knurl') 64bit
Writing library : libebml v1.3.4 + v1.4.5
Cover : Yes
Attachments : Cover-min.jpg

Video
ID : 1
Format : AVC
Format/Info : Advanced Video Codec
Format profile : [email protected]
Format settings, CABAC : Yes
Format settings, ReFrames : 3 frames
Codec ID : V_MPEG4/ISO/AVC
Duration : 17 min 14 s
Bit rate mode : Variable
Bit rate : 6 698 kb/s
Nominal bit rate : 7 150 kb/s
Maximum bit rate : 10.7 Mb/s
Width : 1 920 pixels
Height : 1 080 pixels
Display aspect ratio : 16:9
Frame rate mode : Constant
Frame rate : 24.000 FPS
Color space : YUV
Chroma subsampling : 4:2:0
Bit depth : 8 bits
Scan type : Progressive
Bits/(Pixel*Frame) : 0.135
Stream size : 826 MiB (94%)
Writing library : core 148 r2715 7e75228
Encoding settings : cabac=1 / ref=3 / deblock=1:0:0 / analyse=0x1:0x111 / me=umh / subme=10 / psy=1 / psy_rd=1.00:0.00 / mixed_ref=1 / me_range=24 / chroma_me=1 / trellis=2 / 8x8dct=0 / cqm=0 / deadzone=21,11 / fast_pskip=1 / chroma_qp_offset=-2 / threads=8 / lookahead_threads=1 / sliced_threads=0 / nr=0 / decimate=1 / interlaced=0 / bluray_compat=0 / stitchable=1 / constrained_intra=0 / bframes=2 / b_pyramid=0 / b_adapt=2 / b_bias=0 / direct=3 / weightb=1 / open_gop=0 / weightp=2 / keyint=48 / keyint_min=25 / scenecut=0 / intra_refresh=0 / rc_lookahead=48 / rc=2pass / mbtree=1 / bitrate=7150 / ratetol=1.0 / qcomp=0.50 / qpmin=6 / qpmax=51 / qpstep=4 / cplxblur=20.0 / qblur=0.5 / vbv_maxrate=10725 / vbv_bufsize=14300 / nal_hrd=vbr / filler=0 / ip_ratio=1.40 / aq=1:1.00
Language : English
Default : Yes
Forced : No

Audio
ID : 2
Format : AC-3
Format/Info : Audio Coding 3
Mode extension : CM (complete main)
Format settings, Endianness : Big
Codec ID : A_AC3
Duration : 17 min 14 s
Bit rate mode : Constant
Bit rate : 448 kb/s
Channel(s) : 6 channels
Channel positions : Front: L C R, Side: L R, LFE
Sampling rate : 48.0 kHz
Frame rate : 31.250 FPS (1536 spf)
Compression mode : Lossy
Stream size : 55.2 MiB (6%)
Title : Озвучка AdrianZP
Language : Ukrainian
Default : Yes
Forced : No
2
Format :
Format version : Version 4 / Version 2
File size : 361 MiB
Duration : 11 min 36 s
Overall bit rate mode : Variable
Overall bit rate : 4 353 kb/s
Movie name : 2. Три Роботи
Encoded date : UTC 2019-06-08 16:19:33
Writing application : v9.4.0 ('Knurl') 64bit
Writing library : libebml v1.3.4 + v1.4.5
Cover : Yes
Attachments : Cover-min.jpg

Video
ID : 1
Format : AVC
Format/Info : Advanced Video Codec
Format profile : [email protected]
Format settings, CABAC : Yes
Format settings, ReFrames : 3 frames
Codec ID : V_MPEG4/ISO/AVC
Duration : 11 min 36 s
Bit rate mode : Variable
Bit rate : 4 020 kb/s
Maximum bit rate : 6 030 kb/s
Width : 1 920 pixels
Height : 1 080 pixels
Display aspect ratio : 16:9
Frame rate mode : Constant
Frame rate : 24.000 FPS
Color space : YUV
Chroma subsampling : 4:2:0
Bit depth : 8 bits
Scan type : Progressive
Bits/(Pixel*Frame) : 0.081
Stream size : 324 MiB (90%)
Writing library : core 148 r2715 7e75228
Encoding settings : cabac=1 / ref=3 / deblock=1:0:0 / analyse=0x1:0x111 / me=umh / subme=10 / psy=1 / psy_rd=1.00:0.00 / mixed_ref=1 / me_range=24 / chroma_me=1 / trellis=2 / 8x8dct=0 / cqm=0 / deadzone=21,11 / fast_pskip=1 / chroma_qp_offset=-2 / threads=8 / lookahead_threads=1 / sliced_threads=0 / nr=0 / decimate=1 / interlaced=0 / bluray_compat=0 / stitchable=1 / constrained_intra=0 / bframes=2 / b_pyramid=0 / b_adapt=2 / b_bias=0 / direct=3 / weightb=1 / open_gop=0 / weightp=2 / keyint=48 / keyint_min=25 / scenecut=0 / intra_refresh=0 / rc_lookahead=48 / rc=2pass / mbtree=1 / bitrate=4020 / ratetol=1.0 / qcomp=0.50 / qpmin=6 / qpmax=51 / qpstep=4 / cplxblur=20.0 / qblur=0.5 / vbv_maxrate=6030 / vbv_bufsize=8040 / nal_hrd=vbr / filler=0 / ip_ratio=1.40 / aq=1:1.00
Language : English
Default : Yes
Forced : No

Audio
ID : 2
Format : AC-3
Format/Info : Audio Coding 3
Mode extension : CM (complete main)
Format settings, Endianness : Big
Codec ID : A_AC3
Duration : 11 min 36 s
Bit rate mode : Constant
Bit rate : 448 kb/s
Channel(s) : 6 channels
Channel positions : Front: L C R, Side: L R, LFE
Sampling rate : 48.0 kHz
Frame rate : 31.250 FPS (1536 spf)
Compression mode : Lossy
Stream size : 37.2 MiB (10%)
Title : Озвучка AdrianZP
Language : Ukrainian
Default : Yes
Forced : No
3
Format :
Format version : Version 4 / Version 2
File size : 612 MiB
Duration : 12 min 6 s
Overall bit rate mode : Variable
Overall bit rate : 7 063 kb/s
Movie name : 3. Свідок
Encoded date : UTC 2019-06-08 16:22:25
Writing application : v9.4.0 ('Knurl') 64bit
Writing library : libebml v1.3.4 + v1.4.5
Cover : Yes
Attachments : Cover-min.jpg

Video
ID : 1
Format : AVC
Format/Info : Advanced Video Codec
Format profile : [email protected]
Format settings, CABAC : Yes
Format settings, ReFrames : 3 frames
Codec ID : V_MPEG4/ISO/AVC
Duration : 12 min 6 s
Bit rate mode : Variable
Bit rate : 6 810 kb/s
Maximum bit rate : 10.2 Mb/s
Width : 1 920 pixels
Height : 1 080 pixels
Display aspect ratio : 16:9
Frame rate mode : Constant
Frame rate : 24.000 FPS
Color space : YUV
Chroma subsampling : 4:2:0
Bit depth : 8 bits
Scan type : Progressive
Bits/(Pixel*Frame) : 0.137
Stream size : 572 MiB (94%)
Writing library : core 148 r2715 7e75228
Encoding settings : cabac=1 / ref=3 / deblock=1:0:0 / analyse=0x1:0x111 / me=umh / subme=10 / psy=1 / psy_rd=1.00:0.00 / mixed_ref=1 / me_range=24 / chroma_me=1 / trellis=2 / 8x8dct=0 / cqm=0 / deadzone=21,11 / fast_pskip=1 / chroma_qp_offset=-2 / threads=8 / lookahead_threads=1 / sliced_threads=0 / nr=0 / decimate=1 / interlaced=0 / bluray_compat=0 / stitchable=1 / constrained_intra=0 / bframes=2 / b_pyramid=0 / b_adapt=2 / b_bias=0 / direct=3 / weightb=1 / open_gop=0 / weightp=2 / keyint=48 / keyint_min=25 / scenecut=0 / intra_refresh=0 / rc_lookahead=48 / rc=2pass / mbtree=1 / bitrate=6810 / ratetol=1.0 / qcomp=0.50 / qpmin=6 / qpmax=51 / qpstep=4 / cplxblur=20.0 / qblur=0.5 / vbv_maxrate=10215 / vbv_bufsize=13620 / nal_hrd=vbr / filler=0 / ip_ratio=1.40 / aq=1:1.00
Language : English
Default : Yes
Forced : No

Audio
ID : 2
Format : AC-3
Format/Info : Audio Coding 3
Mode extension : CM (complete main)
Format settings, Endianness : Big
Codec ID : A_AC3
Duration : 12 min 6 s
Bit rate mode : Constant
Bit rate : 448 kb/s
Channel(s) : 6 channels
Channel positions : Front: L C R, Side: L R, LFE
Sampling rate : 48.0 kHz
Frame rate : 31.250 FPS (1536 spf)
Compression mode : Lossy
Stream size : 38.8 MiB (6%)
Title : Озвучка AdrianZP
Language : Ukrainian
Default : Yes
Forced : No
4
Format :
Format version : Version 4 / Version 2
File size : 693 MiB
Duration : 17 min 22 s
Overall bit rate mode : Variable
Overall bit rate : 5 578 kb/s
Movie name : 4. Форс-мажор
Encoded date : UTC 2019-06-08 16:24:12
Writing application : v9.4.0 ('Knurl') 64bit
Writing library : libebml v1.3.4 + v1.4.5
Cover : Yes
Attachments : Cover-min.jpg

Video
ID : 1
Format : AVC
Format/Info : Advanced Video Codec
Format profile : [email protected]
Format settings, CABAC : Yes
Format settings, ReFrames : 3 frames
Codec ID : V_MPEG4/ISO/AVC
Duration : 17 min 22 s
Bit rate mode : Variable
Bit rate : 5 360 kb/s
Maximum bit rate : 8 040 kb/s
Width : 1 920 pixels
Height : 1 080 pixels
Display aspect ratio : 16:9
Frame rate mode : Constant
Frame rate : 24.000 FPS
Color space : YUV
Chroma subsampling : 4:2:0
Bit depth : 8 bits
Scan type : Progressive
Bits/(Pixel*Frame) : 0.108
Stream size : 637 MiB (92%)
Writing library : core 148 r2715 7e75228
Encoding settings : cabac=1 / ref=3 / deblock=1:0:0 / analyse=0x1:0x111 / me=umh / subme=10 / psy=1 / psy_rd=1.00:0.00 / mixed_ref=1 / me_range=24 / chroma_me=1 / trellis=2 / 8x8dct=0 / cqm=0 / deadzone=21,11 / fast_pskip=1 / chroma_qp_offset=-2 / threads=8 / lookahead_threads=1 / sliced_threads=0 / nr=0 / decimate=1 / interlaced=0 / bluray_compat=0 / stitchable=1 / constrained_intra=0 / bframes=2 / b_pyramid=0 / b_adapt=2 / b_bias=0 / direct=3 / weightb=1 / open_gop=0 / weightp=2 / keyint=48 / keyint_min=25 / scenecut=0 / intra_refresh=0 / rc_lookahead=48 / rc=2pass / mbtree=1 / bitrate=5360 / ratetol=1.0 / qcomp=0.50 / qpmin=6 / qpmax=51 / qpstep=4 / cplxblur=20.0 / qblur=0.5 / vbv_maxrate=8040 / vbv_bufsize=10720 / nal_hrd=vbr / filler=0 / ip_ratio=1.40 / aq=1:1.00
Language : English
Default : Yes
Forced : No

Audio
ID : 2
Format : AC-3
Format/Info : Audio Coding 3
Mode extension : CM (complete main)
Format settings, Endianness : Big
Codec ID : A_AC3
Duration : 17 min 22 s
Bit rate mode : Constant
Bit rate : 448 kb/s
Channel(s) : 6 channels
Channel positions : Front: L C R, Side: L R, LFE
Sampling rate : 48.0 kHz
Frame rate : 31.250 FPS (1536 spf)
Compression mode : Lossy
Stream size : 55.7 MiB (8%)
Title : Озвучка AdrianZP
Language : Ukrainian
Default : Yes
Forced : No
5
Format :
Format version : Version 4 / Version 2
File size : 425 MiB
Duration : 13 min 0 s
Overall bit rate mode : Variable
Overall bit rate : 4 565 kb/s
Movie name : 5. Висмоктувач душ
Encoded date : UTC 2019-06-08 16:26:04
Writing application : v9.4.0 ('Knurl') 64bit
Writing library : libebml v1.3.4 + v1.4.5
Cover : Yes
Attachments : Cover-min.jpg

Video
ID : 1
Format : AVC
Format/Info : Advanced Video Codec
Format profile : [email protected]
Format settings, CABAC : Yes
Format settings, ReFrames : 3 frames
Codec ID : V_MPEG4/ISO/AVC
Duration : 13 min 0 s
Bit rate mode : Variable
Bit rate : 4 220 kb/s
Maximum bit rate : 6 330 kb/s
Width : 1 920 pixels
Height : 1 080 pixels
Display aspect ratio : 16:9
Frame rate mode : Constant
Frame rate : 24.000 FPS
Color space : YUV
Chroma subsampling : 4:2:0
Bit depth : 8 bits
Scan type : Progressive
Bits/(Pixel*Frame) : 0.085
Stream size : 383 MiB (90%)
Writing library : core 148 r2715 7e75228
Encoding settings : cabac=1 / ref=3 / deblock=1:0:0 / analyse=0x1:0x111 / me=umh / subme=10 / psy=1 / psy_rd=1.00:0.00 / mixed_ref=1 / me_range=24 / chroma_me=1 / trellis=2 / 8x8dct=0 / cqm=0 / deadzone=21,11 / fast_pskip=1 / chroma_qp_offset=-2 / threads=8 / lookahead_threads=1 / sliced_threads=0 / nr=0 / decimate=1 / interlaced=0 / bluray_compat=0 / stitchable=1 / constrained_intra=0 / bframes=2 / b_pyramid=0 / b_adapt=2 / b_bias=0 / direct=3 / weightb=1 / open_gop=0 / weightp=2 / keyint=48 / keyint_min=25 / scenecut=0 / intra_refresh=0 / rc_lookahead=48 / rc=2pass / mbtree=1 / bitrate=4220 / ratetol=1.0 / qcomp=0.50 / qpmin=6 / qpmax=51 / qpstep=4 / cplxblur=20.0 / qblur=0.5 / vbv_maxrate=6330 / vbv_bufsize=8440 / nal_hrd=vbr / filler=0 / ip_ratio=1.40 / aq=1:1.00
Language : English
Default : Yes
Forced : No

Audio
ID : 2
Format : AC-3
Format/Info : Audio Coding 3
Mode extension : CM (complete main)
Format settings, Endianness : Big
Codec ID : A_AC3
Duration : 13 min 0 s
Bit rate mode : Constant
Bit rate : 448 kb/s
Channel(s) : 6 channels
Channel positions : Front: L C R, Side: L R, LFE
Sampling rate : 48.0 kHz
Frame rate : 31.250 FPS (1536 spf)
Compression mode : Lossy
Stream size : 41.7 MiB (10%)
Title : Озвучка AdrianZP
Language : Ukrainian
Default : Yes
Forced : No
6
Format :
Format version : Version 4 / Version 2
File size : 170 MiB
Duration : 6 min 20 s
Overall bit rate mode : Variable
Overall bit rate : 3 751 kb/s
Movie name : 6. Коли до влади прийшов Йогурт
Encoded date : UTC 2019-06-08 16:27:52
Writing application : v9.4.0 ('Knurl') 64bit
Writing library : libebml v1.3.4 + v1.4.5
Cover : Yes
Attachments : Cover-min.jpg

Video
ID : 1
Format : AVC
Format/Info : Advanced Video Codec
Format profile : [email protected]
Format settings, CABAC : Yes
Format settings, ReFrames : 3 frames
Codec ID : V_MPEG4/ISO/AVC
Duration : 6 min 20 s
Bit rate mode : Variable
Bit rate : 3 294 kb/s
Nominal bit rate : 3 480 kb/s
Maximum bit rate : 5 220 kb/s
Width : 1 920 pixels
Height : 1 080 pixels
Display aspect ratio : 16:9
Frame rate mode : Constant
Frame rate : 24.000 FPS
Color space : YUV
Chroma subsampling : 4:2:0
Bit depth : 8 bits
Scan type : Progressive
Bits/(Pixel*Frame) : 0.066
Stream size : 149 MiB (88%)
Writing library : core 148 r2715 7e75228
Encoding settings : cabac=1 / ref=3 / deblock=1:0:0 / analyse=0x1:0x111 / me=umh / subme=10 / psy=1 / psy_rd=1.00:0.00 / mixed_ref=1 / me_range=24 / chroma_me=1 / trellis=2 / 8x8dct=0 / cqm=0 / deadzone=21,11 / fast_pskip=1 / chroma_qp_offset=-2 / threads=6 / lookahead_threads=1 / sliced_threads=0 / nr=0 / decimate=1 / interlaced=0 / bluray_compat=0 / stitchable=1 / constrained_intra=0 / bframes=2 / b_pyramid=0 / b_adapt=2 / b_bias=0 / direct=3 / weightb=1 / open_gop=0 / weightp=2 / keyint=48 / keyint_min=25 / scenecut=0 / intra_refresh=0 / rc_lookahead=48 / rc=2pass / mbtree=1 / bitrate=3480 / ratetol=1.0 / qcomp=0.50 / qpmin=6 / qpmax=51 / qpstep=4 / cplxblur=20.0 / qblur=0.5 / vbv_maxrate=5220 / vbv_bufsize=6960 / nal_hrd=vbr / filler=0 / ip_ratio=1.40 / aq=1:1.00
Language : English
Default : Yes
Forced : No

Audio
ID : 2
Format : AC-3
Format/Info : Audio Coding 3
Mode extension : CM (complete main)
Format settings, Endianness : Big
Codec ID : A_AC3
Duration : 6 min 20 s
Bit rate mode : Constant
Bit rate : 448 kb/s
Channel(s) : 6 channels
Channel positions : Front: L C R, Side: L R, LFE
Sampling rate : 48.0 kHz
Frame rate : 31.250 FPS (1536 spf)
Compression mode : Lossy
Stream size : 20.3 MiB (12%)
Title : Озвучка AdrianZP
Language : Ukrainian
Default : Yes
Forced : No
7
Format :
Format version : Version 4 / Version 2
File size : 601 MiB
Duration : 16 min 36 s
Overall bit rate mode : Variable
Overall bit rate : 5 060 kb/s
Movie name : 7. За розломом Акіла
Encoded date : UTC 2019-06-08 16:29:20
Writing application : v9.4.0 ('Knurl') 64bit
Writing library : libebml v1.3.4 + v1.4.5
Cover : Yes
Attachments : Cover-min.jpg

Video
ID : 1
Format : AVC
Format/Info : Advanced Video Codec
Format profile : [email protected]
Format settings, CABAC : Yes
Format settings, ReFrames : 3 frames
Codec ID : V_MPEG4/ISO/AVC
Duration : 16 min 36 s
Bit rate mode : Variable
Bit rate : 4 607 kb/s
Nominal bit rate : 4 870 kb/s
Maximum bit rate : 7 305 kb/s
Width : 1 920 pixels
Height : 1 080 pixels
Display aspect ratio : 16:9
Frame rate mode : Constant
Frame rate : 24.000 FPS
Color space : YUV
Chroma subsampling : 4:2:0
Bit depth : 8 bits
Scan type : Progressive
Bits/(Pixel*Frame) : 0.093
Stream size : 547 MiB (91%)
Writing library : core 148 r2715 7e75228
Encoding settings : cabac=1 / ref=3 / deblock=1:0:0 / analyse=0x1:0x111 / me=umh / subme=10 / psy=1 / psy_rd=1.00:0.00 / mixed_ref=1 / me_range=24 / chroma_me=1 / trellis=2 / 8x8dct=0 / cqm=0 / deadzone=21,11 / fast_pskip=1 / chroma_qp_offset=-2 / threads=8 / lookahead_threads=1 / sliced_threads=0 / nr=0 / decimate=1 / interlaced=0 / bluray_compat=0 / stitchable=1 / constrained_intra=0 / bframes=2 / b_pyramid=0 / b_adapt=2 / b_bias=0 / direct=3 / weightb=1 / open_gop=0 / weightp=2 / keyint=48 / keyint_min=25 / scenecut=0 / intra_refresh=0 / rc_lookahead=48 / rc=2pass / mbtree=1 / bitrate=4870 / ratetol=1.0 / qcomp=0.50 / qpmin=6 / qpmax=51 / qpstep=4 / cplxblur=20.0 / qblur=0.5 / vbv_maxrate=7305 / vbv_bufsize=9740 / nal_hrd=vbr / filler=0 / ip_ratio=1.40 / aq=1:1.00
Language : English
Default : Yes
Forced : No

Audio
ID : 2
Format : AC-3
Format/Info : Audio Coding 3
Mode extension : CM (complete main)
Format settings, Endianness : Big
Codec ID : A_AC3
Duration : 16 min 36 s
Bit rate mode : Constant
Bit rate : 448 kb/s
Channel(s) : 6 channels
Channel positions : Front: L C R, Side: L R, LFE
Sampling rate : 48.0 kHz
Frame rate : 31.250 FPS (1536 spf)
Compression mode : Lossy
Stream size : 53.2 MiB (9%)
Title : Озвучка AdrianZP
Language : Ukrainian
Default : Yes
Forced : No
8
Format :
Format version : Version 4 / Version 2
File size : 342 MiB
Duration : 17 min 12 s
Overall bit rate mode : Variable
Overall bit rate : 2 781 kb/s
Movie name : 8. Славне полювання
Encoded date : UTC 2019-06-08 16:30:58
Writing application : v9.4.0 ('Knurl') 64bit
Writing library : libebml v1.3.4 + v1.4.5
Cover : Yes
Attachments : Cover-min.jpg

Video
ID : 1
Format : AVC
Format/Info : Advanced Video Codec
Format profile : [email protected]
Format settings, CABAC : Yes
Format settings, ReFrames : 3 frames
Codec ID : V_MPEG4/ISO/AVC
Duration : 17 min 12 s
Bit rate mode : Variable
Bit rate : 2 370 kb/s
Maximum bit rate : 3 555 kb/s
Width : 1 920 pixels
Height : 1 080 pixels
Display aspect ratio : 16:9
Frame rate mode : Constant
Frame rate : 24.000 FPS
Color space : YUV
Chroma subsampling : 4:2:0
Bit depth : 8 bits
Scan type : Progressive
Bits/(Pixel*Frame) : 0.048
Stream size : 287 MiB (84%)
Writing library : core 148 r2715 7e75228
Encoding settings : cabac=1 / ref=3 / deblock=1:0:0 / analyse=0x1:0x111 / me=umh / subme=10 / psy=1 / psy_rd=1.00:0.00 / mixed_ref=1 / me_range=24 / chroma_me=1 / trellis=2 / 8x8dct=0 / cqm=0 / deadzone=21,11 / fast_pskip=1 / chroma_qp_offset=-2 / threads=8 / lookahead_threads=1 / sliced_threads=0 / nr=0 / decimate=1 / interlaced=0 / bluray_compat=0 / stitchable=1 / constrained_intra=0 / bframes=2 / b_pyramid=0 / b_adapt=2 / b_bias=0 / direct=3 / weightb=1 / open_gop=0 / weightp=2 / keyint=48 / keyint_min=25 / scenecut=0 / intra_refresh=0 / rc_lookahead=48 / rc=2pass / mbtree=1 / bitrate=2370 / ratetol=1.0 / qcomp=0.50 / qpmin=6 / qpmax=51 / qpstep=4 / cplxblur=20.0 / qblur=0.5 / vbv_maxrate=3555 / vbv_bufsize=4740 / nal_hrd=vbr / filler=0 / ip_ratio=1.40 / aq=1:1.00
Language : English
Default : Yes
Forced : No

Audio
ID : 2
Format : AC-3
Format/Info : Audio Coding 3
Mode extension : CM (complete main)
Format settings, Endianness : Big
Codec ID : A_AC3
Duration : 17 min 12 s
Bit rate mode : Constant
Bit rate : 448 kb/s
Channel(s) : 6 channels
Channel positions : Front: L C R, Side: L R, LFE
Sampling rate : 48.0 kHz
Frame rate : 31.250 FPS (1536 spf)
Compression mode : Lossy
Stream size : 55.1 MiB (16%)
Title : Озвучка AdrianZP
Language : Ukrainian
Default : Yes
Forced : No
9
Format :
Format version : Version 4 / Version 2
File size : 360 MiB
Duration : 10 min 34 s
Overall bit rate mode : Variable
Overall bit rate : 4 761 kb/s
Movie name : 9. Звалище
Encoded date : UTC 2019-06-08 16:32:26
Writing application : v9.4.0 ('Knurl') 64bit
Writing library : libebml v1.3.4 + v1.4.5
Cover : Yes
Attachments : Cover-min.jpg

Video
ID : 1
Format : AVC
Format/Info : Advanced Video Codec
Format profile : [email protected]
Format settings, CABAC : Yes
Format settings, ReFrames : 3 frames
Codec ID : V_MPEG4/ISO/AVC
Duration : 10 min 34 s
Bit rate mode : Variable
Bit rate : 4 307 kb/s
Nominal bit rate : 4 640 kb/s
Maximum bit rate : 6 960 kb/s
Width : 1 920 pixels
Height : 1 080 pixels
Display aspect ratio : 16:9
Frame rate mode : Constant
Frame rate : 24.000 FPS
Color space : YUV
Chroma subsampling : 4:2:0
Bit depth : 8 bits
Scan type : Progressive
Bits/(Pixel*Frame) : 0.087
Stream size : 326 MiB (90%)
Writing library : core 148 r2715 7e75228
Encoding settings : cabac=1 / ref=3 / deblock=1:0:0 / analyse=0x1:0x111 / me=umh / subme=10 / psy=1 / psy_rd=1.00:0.00 / mixed_ref=1 / me_range=24 / chroma_me=1 / trellis=2 / 8x8dct=0 / cqm=0 / deadzone=21,11 / fast_pskip=1 / chroma_qp_offset=-2 / threads=8 / lookahead_threads=1 / sliced_threads=0 / nr=0 / decimate=1 / interlaced=0 / bluray_compat=0 / stitchable=1 / constrained_intra=0 / bframes=2 / b_pyramid=0 / b_adapt=2 / b_bias=0 / direct=3 / weightb=1 / open_gop=0 / weightp=2 / keyint=48 / keyint_min=25 / scenecut=0 / intra_refresh=0 / rc_lookahead=48 / rc=2pass / mbtree=1 / bitrate=4640 / ratetol=1.0 / qcomp=0.50 / qpmin=6 / qpmax=51 / qpstep=4 / cplxblur=20.0 / qblur=0.5 / vbv_maxrate=6960 / vbv_bufsize=9280 / nal_hrd=vbr / filler=0 / ip_ratio=1.40 / aq=1:1.00
Language : English
Default : Yes
Forced : No

Audio
ID : 2
Format : AC-3
Format/Info : Audio Coding 3
Mode extension : CM (complete main)
Format settings, Endianness : Big
Codec ID : A_AC3
Duration : 10 min 34 s
Bit rate mode : Constant
Bit rate : 448 kb/s
Channel(s) : 6 channels
Channel positions : Front: L C R, Side: L R, LFE
Sampling rate : 48.0 kHz
Frame rate : 31.250 FPS (1536 spf)
Compression mode : Lossy
Stream size : 33.9 MiB (9%)
Title : Озвучка AdrianZP
Language : Ukrainian
Default : Yes
Forced : No
10
Format :
Format version : Version 4 / Version 2
File size : 648 MiB
Duration : 16 min 10 s
Overall bit rate mode : Variable
Overall bit rate : 5 599 kb/s
Movie name : 10. Перевертні
Encoded date : UTC 2019-06-08 16:33:52
Writing application : v9.4.0 ('Knurl') 64bit
Writing library : libebml v1.3.4 + v1.4.5
Cover : Yes
Attachments : Cover-min.jpg

Video
ID : 1
Format : AVC
Format/Info : Advanced Video Codec
Format profile : [email protected]
Format settings, CABAC : Yes
Format settings, ReFrames : 3 frames
Codec ID : V_MPEG4/ISO/AVC
Duration : 16 min 10 s
Bit rate mode : Variable
Bit rate : 5 360 kb/s
Maximum bit rate : 8 040 kb/s
Width : 1 920 pixels
Height : 1 080 pixels
Display aspect ratio : 16:9
Frame rate mode : Constant
Frame rate : 24.000 FPS
Color space : YUV
Chroma subsampling : 4:2:0
Bit depth : 8 bits
Scan type : Progressive
Bits/(Pixel*Frame) : 0.108
Stream size : 595 MiB (92%)
Writing library : core 148 r2715 7e75228
Encoding settings : cabac=1 / ref=3 / deblock=1:0:0 / analyse=0x1:0x111 / me=umh / subme=10 / psy=1 / psy_rd=1.00:0.00 / mixed_ref=1 / me_range=24 / chroma_me=1 / trellis=2 / 8x8dct=0 / cqm=0 / deadzone=21,11 / fast_pskip=1 / chroma_qp_offset=-2 / threads=8 / lookahead_threads=1 / sliced_threads=0 / nr=0 / decimate=1 / interlaced=0 / bluray_compat=0 / stitchable=1 / constrained_intra=0 / bframes=2 / b_pyramid=0 / b_adapt=2 / b_bias=0 / direct=3 / weightb=1 / open_gop=0 / weightp=2 / keyint=48 / keyint_min=25 / scenecut=0 / intra_refresh=0 / rc_lookahead=48 / rc=2pass / mbtree=1 / bitrate=5360 / ratetol=1.0 / qcomp=0.50 / qpmin=6 / qpmax=51 / qpstep=4 / cplxblur=20.0 / qblur=0.5 / vbv_maxrate=8040 / vbv_bufsize=10720 / nal_hrd=vbr / filler=0 / ip_ratio=1.40 / aq=1:1.00
Language : English
Default : Yes
Forced : No

Audio
ID : 2
Format : AC-3
Format/Info : Audio Coding 3
Mode extension : CM (complete main)
Format settings, Endianness : Big
Codec ID : A_AC3
Duration : 16 min 10 s
Bit rate mode : Constant
Bit rate : 448 kb/s
Channel(s) : 6 channels
Channel positions : Front: L C R, Side: L R, LFE
Sampling rate : 48.0 kHz
Frame rate : 31.250 FPS (1536 spf)
Compression mode : Lossy
Stream size : 51.8 MiB (8%)
Title : Озвучка AdrianZP
Language : Ukrainian
Default : Yes
Forced : No
11
Format :
Format version : Version 4 / Version 2
File size : 274 MiB
Duration : 10 min 4 s
Overall bit rate mode : Variable
Overall bit rate : 3 809 kb/s
Movie name : 11. Рука допомоги
Encoded date : UTC 2019-06-08 16:35:40
Writing application : v9.4.0 ('Knurl') 64bit
Writing library : libebml v1.3.4 + v1.4.5
Cover : Yes
Attachments : Cover-min.jpg

Video
ID : 1
Format : AVC
Format/Info : Advanced Video Codec
Format profile : [email protected]
Format settings, CABAC : Yes
Format settings, ReFrames : 3 frames
Codec ID : V_MPEG4/ISO/AVC
Duration : 10 min 4 s
Bit rate mode : Variable
Bit rate : 3 480 kb/s
Maximum bit rate : 5 220 kb/s
Width : 1 920 pixels
Height : 1 080 pixels
Display aspect ratio : 16:9
Frame rate mode : Constant
Frame rate : 24.000 FPS
Color space : YUV
Chroma subsampling : 4:2:0
Bit depth : 8 bits
Scan type : Progressive
Bits/(Pixel*Frame) : 0.070
Stream size : 242 MiB (88%)
Writing library : core 148 r2715 7e75228
Encoding settings : cabac=1 / ref=3 / deblock=1:0:0 / analyse=0x1:0x111 / me=umh / subme=10 / psy=1 / psy_rd=1.00:0.00 / mixed_ref=1 / me_range=24 / chroma_me=1 / trellis=2 / 8x8dct=0 / cqm=0 / deadzone=21,11 / fast_pskip=1 / chroma_qp_offset=-2 / threads=8 / lookahead_threads=1 / sliced_threads=0 / nr=0 / decimate=1 / interlaced=0 / bluray_compat=0 / stitchable=1 / constrained_intra=0 / bframes=2 / b_pyramid=0 / b_adapt=2 / b_bias=0 / direct=3 / weightb=1 / open_gop=0 / weightp=2 / keyint=48 / keyint_min=25 / scenecut=0 / intra_refresh=0 / rc_lookahead=48 / rc=2pass / mbtree=1 / bitrate=3480 / ratetol=1.0 / qcomp=0.50 / qpmin=6 / qpmax=51 / qpstep=4 / cplxblur=20.0 / qblur=0.5 / vbv_maxrate=5220 / vbv_bufsize=6960 / nal_hrd=vbr / filler=0 / ip_ratio=1.40 / aq=1:1.00
Language : English
Default : Yes
Forced : No

Audio
ID : 2
Format : AC-3
Format/Info : Audio Coding 3
Mode extension : CM (complete main)
Format settings, Endianness : Big
Codec ID : A_AC3
Duration : 10 min 4 s
Bit rate mode : Constant
Bit rate : 448 kb/s
Channel(s) : 6 channels
Channel positions : Front: L C R, Side: L R, LFE
Sampling rate : 48.0 kHz
Frame rate : 31.250 FPS (1536 spf)
Compression mode : Lossy
Stream size : 32.3 MiB (12%)
Title : Озвучка AdrianZP
Language : Ukrainian
Default : Yes
Forced : No
12
Format :
Format version : Version 4 / Version 2
File size : 351 MiB
Duration : 10 min 14 s
Overall bit rate mode : Variable
Overall bit rate : 4 787 kb/s
Movie name : 12. Рибна ніч
Encoded date : UTC 2019-06-08 16:37:26
Writing application : v9.4.0 ('Knurl') 64bit
Writing library : libebml v1.3.4 + v1.4.5
Cover : Yes
Attachments : Cover-min.jpg

Video
ID : 1
Format : AVC
Format/Info : Advanced Video Codec
Format profile : [email protected]
Format settings, CABAC : Yes
Format settings, ReFrames : 3 frames
Codec ID : V_MPEG4/ISO/AVC
Duration : 10 min 14 s
Bit rate mode : Variable
Bit rate : 4 333 kb/s
Nominal bit rate : 4 640 kb/s
Maximum bit rate : 6 960 kb/s
Width : 1 920 pixels
Height : 1 080 pixels
Display aspect ratio : 16:9
Frame rate mode : Constant
Frame rate : 24.000 FPS
Color space : YUV
Chroma subsampling : 4:2:0
Bit depth : 8 bits
Scan type : Progressive
Bits/(Pixel*Frame) : 0.087
Stream size : 317 MiB (91%)
Writing library : core 148 r2715 7e75228
Encoding settings : cabac=1 / ref=3 / deblock=1:0:0 / analyse=0x1:0x111 / me=umh / subme=10 / psy=1 / psy_rd=1.00:0.00 / mixed_ref=1 / me_range=24 / chroma_me=1 / trellis=2 / 8x8dct=0 / cqm=0 / deadzone=21,11 / fast_pskip=1 / chroma_qp_offset=-2 / threads=8 / lookahead_threads=1 / sliced_threads=0 / nr=0 / decimate=1 / interlaced=0 / bluray_compat=0 / stitchable=1 / constrained_intra=0 / bframes=2 / b_pyramid=0 / b_adapt=2 / b_bias=0 / direct=3 / weightb=1 / open_gop=0 / weightp=2 / keyint=48 / keyint_min=25 / scenecut=0 / intra_refresh=0 / rc_lookahead=48 / rc=2pass / mbtree=1 / bitrate=4640 / ratetol=1.0 / qcomp=0.50 / qpmin=6 / qpmax=51 / qpstep=4 / cplxblur=20.0 / qblur=0.5 / vbv_maxrate=6960 / vbv_bufsize=9280 / nal_hrd=vbr / filler=0 / ip_ratio=1.40 / aq=1:1.00
Language : English
Default : Yes
Forced : No

Audio
ID : 2
Format : AC-3
Format/Info : Audio Coding 3
Mode extension : CM (complete main)
Format settings, Endianness : Big
Codec ID : A_AC3
Duration : 10 min 14 s
Bit rate mode : Constant
Bit rate : 448 kb/s
Channel(s) : 6 channels
Channel positions : Front: L C R, Side: L R, LFE
Sampling rate : 48.0 kHz
Frame rate : 31.250 FPS (1536 spf)
Compression mode : Lossy
Stream size : 32.8 MiB (9%)
Title : Озвучка AdrianZP
Language : Ukrainian
Default : Yes
Forced : No
13
Format :
Format version : Version 4 / Version 2
File size : 680 MiB
Duration : 14 min 48 s
Overall bit rate mode : Variable
Overall bit rate : 6 424 kb/s
Movie name : 13. Щасливчик 13
Encoded date : UTC 2019-06-08 16:38:50
Writing application : v9.4.0 ('Knurl') 64bit
Writing library : libebml v1.3.4 + v1.4.5
Cover : Yes
Attachments : Cover-min.jpg

Video
ID : 1
Format : AVC
Format/Info : Advanced Video Codec
Format profile : [email protected]
Format settings, CABAC : Yes
Format settings, ReFrames : 3 frames
Codec ID : V_MPEG4/ISO/AVC
Duration : 14 min 48 s
Bit rate mode : Variable
Bit rate : 6 190 kb/s
Maximum bit rate : 9 285 kb/s
Width : 1 920 pixels
Height : 1 080 pixels
Display aspect ratio : 16:9
Frame rate mode : Constant
Frame rate : 24.000 FPS
Color space : YUV
Chroma subsampling : 4:2:0
Bit depth : 8 bits
Scan type : Progressive
Bits/(Pixel*Frame) : 0.124
Stream size : 632 MiB (93%)
Writing library : core 148 r2715 7e75228
Encoding settings : cabac=1 / ref=3 / deblock=1:0:0 / analyse=0x1:0x111 / me=umh / subme=10 / psy=1 / psy_rd=1.00:0.00 / mixed_ref=1 / me_range=24 / chroma_me=1 / trellis=2 / 8x8dct=0 / cqm=0 / deadzone=21,11 / fast_pskip=1 / chroma_qp_offset=-2 / threads=8 / lookahead_threads=1 / sliced_threads=0 / nr=0 / decimate=1 / interlaced=0 / bluray_compat=0 / stitchable=1 / constrained_intra=0 / bframes=2 / b_pyramid=0 / b_adapt=2 / b_bias=0 / direct=3 / weightb=1 / open_gop=0 / weightp=2 / keyint=48 / keyint_min=25 / scenecut=0 / intra_refresh=0 / rc_lookahead=48 / rc=2pass / mbtree=1 / bitrate=6190 / ratetol=1.0 / qcomp=0.50 / qpmin=6 / qpmax=51 / qpstep=4 / cplxblur=20.0 / qblur=0.5 / vbv_maxrate=9285 / vbv_bufsize=12380 / nal_hrd=vbr / filler=0 / ip_ratio=1.40 / aq=1:1.00
Language : English
Default : Yes
Forced : No

Audio
ID : 2
Format : AC-3
Format/Info : Audio Coding 3
Mode extension : CM (complete main)
Format settings, Endianness : Big
Codec ID : A_AC3
Duration : 14 min 48 s
Bit rate mode : Constant
Bit rate : 448 kb/s
Channel(s) : 6 channels
Channel positions : Front: L C R, Side: L R, LFE
Sampling rate : 48.0 kHz
Frame rate : 31.250 FPS (1536 spf)
Compression mode : Lossy
Stream size : 47.4 MiB (7%)
Title : Озвучка AdrianZP
Language : Ukrainian
Default : Yes
Forced : No
14
Format :
Format version : Version 4 / Version 2
File size : 365 MiB
Duration : 10 min 24 s
Overall bit rate mode : Variable
Overall bit rate : 4 898 kb/s
Movie name : 14. Зима Блакить
Encoded date : UTC 2019-06-08 16:40:40
Writing application : v9.4.0 ('Knurl') 64bit
Writing library : libebml v1.3.4 + v1.4.5
Cover : Yes
Attachments : Cover-min.jpg

Video
ID : 1
Format : AVC
Format/Info : Advanced Video Codec
Format profile : [email protected]
Format settings, CABAC : Yes
Format settings, ReFrames : 3 frames
Codec ID : V_MPEG4/ISO/AVC
Duration : 10 min 24 s
Bit rate mode : Variable
Bit rate : 4 444 kb/s
Nominal bit rate : 4 870 kb/s
Maximum bit rate : 7 305 kb/s
Width : 1 920 pixels
Height : 1 080 pixels
Display aspect ratio : 16:9
Frame rate mode : Constant
Frame rate : 24.000 FPS
Color space : YUV
Chroma subsampling : 4:2:0
Bit depth : 8 bits
Scan type : Progressive
Bits/(Pixel*Frame) : 0.089
Stream size : 331 MiB (91%)
Writing library : core 148 r2715 7e75228
Encoding settings : cabac=1 / ref=3 / deblock=1:0:0 / analyse=0x1:0x111 / me=umh / subme=10 / psy=1 / psy_rd=1.00:0.00 / mixed_ref=1 / me_range=24 / chroma_me=1 / trellis=2 / 8x8dct=0 / cqm=0 / deadzone=21,11 / fast_pskip=1 / chroma_qp_offset=-2 / threads=8 / lookahead_threads=1 / sliced_threads=0 / nr=0 / decimate=1 / interlaced=0 / bluray_compat=0 / stitchable=1 / constrained_intra=0 / bframes=2 / b_pyramid=0 / b_adapt=2 / b_bias=0 / direct=3 / weightb=1 / open_gop=0 / weightp=2 / keyint=48 / keyint_min=25 / scenecut=0 / intra_refresh=0 / rc_lookahead=48 / rc=2pass / mbtree=1 / bitrate=4870 / ratetol=1.0 / qcomp=0.50 / qpmin=6 / qpmax=51 / qpstep=4 / cplxblur=20.0 / qblur=0.5 / vbv_maxrate=7305 / vbv_bufsize=9740 / nal_hrd=vbr / filler=0 / ip_ratio=1.40 / aq=1:1.00
Language : English
Default : Yes
Forced : No

Audio
ID : 2
Format : AC-3
Format/Info : Audio Coding 3
Mode extension : CM (complete main)
Format settings, Endianness : Big
Codec ID : A_AC3
Duration : 10 min 24 s
Bit rate mode : Constant
Bit rate : 448 kb/s
Channel(s) : 6 channels
Channel positions : Front: L C R, Side: L R, LFE
Sampling rate : 48.0 kHz
Frame rate : 31.250 FPS (1536 spf)
Compression mode : Lossy
Stream size : 33.3 MiB (9%)
Title : Озвучка AdrianZP
Language : Ukrainian
Default : Yes
Forced : No
15
Format :
Format version : Version 4 / Version 2
File size : 194 MiB
Duration : 8 min 44 s
Overall bit rate mode : Variable
Overall bit rate : 3 097 kb/s
Movie name : 15. Сліпа зона
Encoded date : UTC 2019-06-08 16:42:05
Writing application : v9.4.0 ('Knurl') 64bit
Writing library : libebml v1.3.4 + v1.4.5
Cover : Yes
Attachments : Cover-min.jpg

Video
ID : 1
Format : AVC
Format/Info : Advanced Video Codec
Format profile : [email protected]
Format settings, CABAC : Yes
Format settings, ReFrames : 3 frames
Codec ID : V_MPEG4/ISO/AVC
Duration : 8 min 44 s
Bit rate mode : Variable
Bit rate : 2 740 kb/s
Maximum bit rate : 4 110 kb/s
Width : 1 920 pixels
Height : 1 080 pixels
Display aspect ratio : 16:9
Frame rate mode : Constant
Frame rate : 24.000 FPS
Color space : YUV
Chroma subsampling : 4:2:0
Bit depth : 8 bits
Scan type : Progressive
Bits/(Pixel*Frame) : 0.055
Stream size : 165 MiB (85%)
Writing library : core 148 r2715 7e75228
Encoding settings : cabac=1 / ref=3 / deblock=1:0:0 / analyse=0x1:0x111 / me=umh / subme=10 / psy=1 / psy_rd=1.00:0.00 / mixed_ref=1 / me_range=24 / chroma_me=1 / trellis=2 / 8x8dct=0 / cqm=0 / deadzone=21,11 / fast_pskip=1 / chroma_qp_offset=-2 / threads=8 / lookahead_threads=1 / sliced_threads=0 / nr=0 / decimate=1 / interlaced=0 / bluray_compat=0 / stitchable=1 / constrained_intra=0 / bframes=2 / b_pyramid=0 / b_adapt=2 / b_bias=0 / direct=3 / weightb=1 / open_gop=0 / weightp=2 / keyint=48 / keyint_min=25 / scenecut=0 / intra_refresh=0 / rc_lookahead=48 / rc=2pass / mbtree=1 / bitrate=2740 / ratetol=1.0 / qcomp=0.50 / qpmin=6 / qpmax=51 / qpstep=4 / cplxblur=20.0 / qblur=0.5 / vbv_maxrate=4110 / vbv_bufsize=5480 / nal_hrd=vbr / filler=0 / ip_ratio=1.40 / aq=1:1.00
Language : English
Default : Yes
Forced : No

Audio
ID : 2
Format : AC-3
Format/Info : Audio Coding 3
Mode extension : CM (complete main)
Format settings, Endianness : Big
Codec ID : A_AC3
Duration : 8 min 44 s
Bit rate mode : Constant
Bit rate : 448 kb/s
Channel(s) : 6 channels
Channel positions : Front: L C R, Side: L R, LFE
Sampling rate : 48.0 kHz
Frame rate : 31.250 FPS (1536 spf)
Compression mode : Lossy
Stream size : 28.0 MiB (14%)
Title : Озвучка AdrianZP
Language : Ukrainian
Default : Yes
Forced : No
16
Format :
Format version : Version 4 / Version 2
File size : 358 MiB
Duration : 10 min 30 s
Overall bit rate mode : Variable
Overall bit rate : 4 767 kb/s
Movie name : 16. Льодовиковий період
Encoded date : UTC 2019-06-08 16:43:27
Writing application : v9.4.0 ('Knurl') 64bit
Writing library : libebml v1.3.4 + v1.4.5
Cover : Yes
Attachments : Cover-min.jpg

Video
ID : 1
Format : AVC
Format/Info : Advanced Video Codec
Format profile : [email protected]
Format settings, CABAC : Yes
Format settings, ReFrames : 3 frames
Codec ID : V_MPEG4/ISO/AVC
Duration : 10 min 30 s
Bit rate mode : Variable
Bit rate : 4 313 kb/s
Nominal bit rate : 4 640 kb/s
Maximum bit rate : 6 960 kb/s
Width : 1 920 pixels
Height : 1 080 pixels
Display aspect ratio : 16:9
Frame rate mode : Constant
Frame rate : 24.000 FPS
Color space : YUV
Chroma subsampling : 4:2:0
Bit depth : 8 bits
Scan type : Progressive
Bits/(Pixel*Frame) : 0.087
Stream size : 324 MiB (90%)
Writing library : core 148 r2715 7e75228
Encoding settings : cabac=1 / ref=3 / deblock=1:0:0 / analyse=0x1:0x111 / me=umh / subme=10 / psy=1 / psy_rd=1.00:0.00 / mixed_ref=1 / me_range=24 / chroma_me=1 / trellis=2 / 8x8dct=0 / cqm=0 / deadzone=21,11 / fast_pskip=1 / chroma_qp_offset=-2 / threads=8 / lookahead_threads=1 / sliced_threads=0 / nr=0 / decimate=1 / interlaced=0 / bluray_compat=0 / stitchable=1 / constrained_intra=0 / bframes=2 / b_pyramid=0 / b_adapt=2 / b_bias=0 / direct=3 / weightb=1 / open_gop=0 / weightp=2 / keyint=48 / keyint_min=25 / scenecut=0 / intra_refresh=0 / rc_lookahead=48 / rc=2pass / mbtree=1 / bitrate=4640 / ratetol=1.0 / qcomp=0.50 / qpmin=6 / qpmax=51 / qpstep=4 / cplxblur=20.0 / qblur=0.5 / vbv_maxrate=6960 / vbv_bufsize=9280 / nal_hrd=vbr / filler=0 / ip_ratio=1.40 / aq=1:1.00
Language : English
Default : Yes
Forced : No

Audio
ID : 2
Format : AC-3
Format/Info : Audio Coding 3
Mode extension : CM (complete main)
Format settings, Endianness : Big
Codec ID : A_AC3
Duration : 10 min 30 s
Bit rate mode : Constant
Bit rate : 448 kb/s
Channel(s) : 6 channels
Channel positions : Front: L C R, Side: L R, LFE
Sampling rate : 48.0 kHz
Frame rate : 31.250 FPS (1536 spf)
Compression mode : Lossy
Stream size : 33.7 MiB (9%)
Title : Озвучка AdrianZP
Language : Ukrainian
Default : Yes
Forced : No
17
Format :
Format version : Version 4 / Version 2
File size : 355 MiB
Duration : 7 min 54 s
Overall bit rate mode : Variable
Overall bit rate : 6 271 kb/s
Movie name : 17. Альтернативні історії
Encoded date : UTC 2019-06-08 16:44:57
Writing application : v9.4.0 ('Knurl') 64bit
Writing library : libebml v1.3.4 + v1.4.5
Cover : Yes
Attachments : Cover-min.jpg

Video
ID : 1
Format : AVC
Format/Info : Advanced Video Codec
Format profile : [email protected]
Format settings, CABAC : Yes
Format settings, ReFrames : 3 frames
Codec ID : V_MPEG4/ISO/AVC
Duration : 7 min 54 s
Bit rate mode : Variable
Bit rate : 5 815 kb/s
Nominal bit rate : 6 490 kb/s
Maximum bit rate : 9 735 kb/s
Width : 1 920 pixels
Height : 1 080 pixels
Display aspect ratio : 16:9
Frame rate mode : Constant
Frame rate : 24.000 FPS
Color space : YUV
Chroma subsampling : 4:2:0
Bit depth : 8 bits
Scan type : Progressive
Bits/(Pixel*Frame) : 0.117
Stream size : 329 MiB (93%)
Writing library : core 148 r2715 7e75228
Encoding settings : cabac=1 / ref=3 / deblock=1:0:0 / analyse=0x1:0x111 / me=umh / subme=10 / psy=1 / psy_rd=1.00:0.00 / mixed_ref=1 / me_range=24 / chroma_me=1 / trellis=2 / 8x8dct=0 / cqm=0 / deadzone=21,11 / fast_pskip=1 / chroma_qp_offset=-2 / threads=8 / lookahead_threads=1 / sliced_threads=0 / nr=0 / decimate=1 / interlaced=0 / bluray_compat=0 / stitchable=1 / constrained_intra=0 / bframes=2 / b_pyramid=0 / b_adapt=2 / b_bias=0 / direct=3 / weightb=1 / open_gop=0 / weightp=2 / keyint=48 / keyint_min=25 / scenecut=0 / intra_refresh=0 / rc_lookahead=48 / rc=2pass / mbtree=1 / bitrate=6490 / ratetol=1.0 / qcomp=0.50 / qpmin=6 / qpmax=51 / qpstep=4 / cplxblur=20.0 / qblur=0.5 / vbv_maxrate=9735 / vbv_bufsize=12980 / nal_hrd=vbr / filler=0 / ip_ratio=1.40 / aq=1:1.00
Language : English
Default : Yes
Forced : No

Audio
ID : 2
Format : AC-3
Format/Info : Audio Coding 3
Mode extension : CM (complete main)
Format settings, Endianness : Big
Codec ID : A_AC3
Duration : 7 min 54 s
Bit rate mode : Constant
Bit rate : 448 kb/s
Channel(s) : 6 channels
Channel positions : Front: L C R, Side: L R, LFE
Sampling rate : 48.0 kHz
Frame rate : 31.250 FPS (1536 spf)
Compression mode : Lossy
Stream size : 25.3 MiB (7%)
Title : Озвучка AdrianZP
Language : Ukrainian
Default : Yes
Forced : No
18
Format :
Format version : Version 4 / Version 2
File size : 886 MiB
Duration : 16 min 22 s
Overall bit rate mode : Variable
Overall bit rate : 7 566 kb/s
Movie name : 18. Секретна війна
Encoded date : UTC 2019-06-08 16:46:10
Writing application : v9.4.0 ('Knurl') 64bit
Writing library : libebml v1.3.4 + v1.4.5
Cover : Yes
Attachments : Cover-min.jpg

Video
ID : 1
Format : AVC
Format/Info : Advanced Video Codec
Format profile : [email protected]
Format settings, CABAC : Yes
Format settings, ReFrames : 3 frames
Codec ID : V_MPEG4/ISO/AVC
Duration : 16 min 22 s
Bit rate mode : Variable
Bit rate : 7 113 kb/s
Nominal bit rate : 7 500 kb/s
Maximum bit rate : 11.2 Mb/s
Width : 1 920 pixels
Height : 1 080 pixels
Display aspect ratio : 16:9
Frame rate mode : Constant
Frame rate : 24.000 FPS
Color space : YUV
Chroma subsampling : 4:2:0
Bit depth : 8 bits
Scan type : Progressive
Bits/(Pixel*Frame) : 0.143
Stream size : 833 MiB (94%)
Writing library : core 148 r2715 7e75228
Encoding settings : cabac=1 / ref=3 / deblock=1:0:0 / analyse=0x1:0x111 / me=umh / subme=10 / psy=1 / psy_rd=1.00:0.00 / mixed_ref=1 / me_range=24 / chroma_me=1 / trellis=2 / 8x8dct=0 / cqm=0 / deadzone=21,11 / fast_pskip=1 / chroma_qp_offset=-2 / threads=8 / lookahead_threads=1 / sliced_threads=0 / nr=0 / decimate=1 / interlaced=0 / bluray_compat=0 / stitchable=1 / constrained_intra=0 / bframes=2 / b_pyramid=0 / b_adapt=2 / b_bias=0 / direct=3 / weightb=1 / open_gop=0 / weightp=2 / keyint=48 / keyint_min=25 / scenecut=0 / intra_refresh=0 / rc_lookahead=48 / rc=2pass / mbtree=1 / bitrate=7500 / ratetol=1.0 / qcomp=0.50 / qpmin=6 / qpmax=51 / qpstep=4 / cplxblur=20.0 / qblur=0.5 / vbv_maxrate=11250 / vbv_bufsize=15000 / nal_hrd=vbr / filler=0 / ip_ratio=1.40 / aq=1:1.00
Language : English
Default : Yes
Forced : No

Audio
ID : 2
Format : AC-3
Format/Info : Audio Coding 3
Mode extension : CM (complete main)
Format settings, Endianness : Big
Codec ID : A_AC3
Duration : 16 min 22 s
Bit rate mode : Constant
Bit rate : 448 kb/s
Channel(s) : 6 channels
Channel positions : Front: L C R, Side: L R, LFE
Sampling rate : 48.0 kHz
Frame rate : 31.250 FPS (1536 spf)
Compression mode : Lossy
Stream size : 52.5 MiB (6%)
Title : Озвучка AdrianZP
Language : Ukrainian
Default : Yes
Forced : No
Скріншоти




Озвучення виконано:
Переклад: Dakshina_Kali
Ролі озвучили: AdrianZP та Dakshina_Kali

Особиста оцінка: 10 - Неймовірно захопливо! Кожна серія радує різними емоціями!


Авторський реліз (завантажувати можна без реєстрації)
 Трекер:    Зареєстрований   

Завантажити / скачати мультфільм українською



відео для новачків



 Зареєстрований:   2019-06-10 09:57
 Розмір:   8.36 GB 
 Оцінка мультсеріалу:   9.4/10 (Голосів: 16)
   
AdrianZP 
Поважний учасник


З нами з: 28.08.14
Востаннє: 16.06.19
Повідомлень: 219

2019-05-23 17:51  
РЕЛІЗ ЗАПЛАНОВАНИЙ НА 10 ЧЕРВНЯ.

Наразі серіал має тимчасову ексклюзивність в онлайні.

bot 
робот


З нами з: 30.09.07
Востаннє: 26.05.05
Повідомлень: 21517

2019-05-23 17:51  
Тему перенесено з Мультсеріали в HD до форуму Анонси релізів


AdrianZP

leicheman 
Відео Гуртом - підтримка та поширення
Відео Гуртом - підтримка та поширення


З нами з: 03.07.14
Востаннє: 16.06.19
Повідомлень: 3697

2019-05-23 18:10  
AdrianZP написано:
ексклюзивність в онлайні.

А де саме ?

AdrianZP 
Поважний учасник


З нами з: 28.08.14
Востаннє: 16.06.19
Повідомлень: 219

2019-05-23 18:17  
leicheman
Дивіться у фейсбук спільноті "Озвучка AdrianZP"

-Star-Lord- 
VIP


З нами з: 09.08.18
Востаннє: 16.06.19
Повідомлень: 826

2019-05-25 23:56  
AdrianZP
Можна хоча б семпл?

LisaPatrikevna 
Новенький


З нами з: 03.07.13
Востаннє: 15.06.19
Повідомлень: 7

2019-05-26 10:04  
Класна антологія! На основі оповідань, тому й короткий метр. До речі, всі мультики різні - і графіка, і сюжети, ще й від різних режисерів. Деякі кращі, деякі нудніші. "Три роботи" - мій особистий фаворит.
AdrianZP 
Поважний учасник


З нами з: 28.08.14
Востаннє: 16.06.19
Повідомлень: 219

2019-05-26 17:57  
LisaPatrikevna
LisaPatrikevna написано:
"Три роботи" - мій особистий фаворит.

Ох, отримав масу задоволення озвучуючи цей епізод)
-Star-Lord-
-Star-Lord- написано:
семпл?

В онлайні послухайте семпл. Наша озвучка наразі одна, тому не переплутаєте.

vaso304 
Новенький


З нами з: 17.06.17
Востаннє: 09.06.19
Повідомлень: 2

2019-05-27 12:16  
шикарний серіал, деякі серії можуть не зайти але загалом дуже круто
bot 
робот


З нами з: 30.09.07
Востаннє: 26.05.05
Повідомлень: 21517

2019-06-10 09:56  
Тему перенесено з Анонси релізів до форуму Мультсеріали в HD


AdrianZP

AdrianZP 
Поважний учасник


З нами з: 28.08.14
Востаннє: 16.06.19
Повідомлень: 219

2019-06-10 09:59  
Додано весь сезон!

Не забувайте, що найкраща подяка — лишатися на роздачі. Дякуємо!

igor911 
Модератор відео


З нами з: 18.01.08
Востаннє: 16.06.19
Повідомлень: 12654

2019-06-10 10:06  
AdrianZP, тут реклама є?
AdrianZP 
Поважний учасник


З нами з: 28.08.14
Востаннє: 16.06.19
Повідомлень: 219

2019-06-10 10:11  
igor911
З правилами ознайомлені, тому логічно, що немає.

ivasykus 
VIP


З нами з: 10.02.09
Востаннє: 17.06.19
Повідомлень: 572

2019-06-10 18:08  
Це, поза сумнівом, найкращий мультсеріал року. Дякую за українське озвучення!
doslis 
Частий відвідувач


З нами з: 15.02.16
Востаннє: 14.06.19
Повідомлень: 27

2019-06-10 20:11  
9 з 10 лише через рожевеньких, лапулечек вовкулак для дівчаток. А так, серіал - як ковток свіжого повітря, давно нічого гідного не бачив.Дякую за українське озвучення!
BMK12 
Відео Гуртом - підтримка та поширення
Відео Гуртом - підтримка та поширення


З нами з: 13.04.09
Востаннє: 14.06.19
Повідомлень: 3343

2019-06-14 19:16  
Серіал - жестяк!!

Дякую за озвучення!

Додано через 52 секунди:

ivasykus написано:
найкращий мультсеріал року

Скоріш анімаційна робота. Це - точно не мультфільм.

Ваш часовий пояс: GMT + 2 Години

Нова тема   Відповісти