Мортал Комбат: Винищення (Цілковите знищення) / Mortal Kombat: Annihilation (1997) Remux 1080p 2хUkr/Eng | Sub Eng

Нові коментарі

Нова тема   Відповісти
Автор Повідомлення
MakRA 
Поважний учасник


З нами з: 11.11.18
Востаннє: 18.06.19
Повідомлень: 228

2019-05-23 01:05  
Мортал Комбат: Винищення / Мортал Комбат: Цілковите знищення / Mortal Kombat: Annihilation (1997) Remux 1080p 2хUkr/Eng | Sub Eng

Мортал Комбат: Винищення (Цілковите знищення) / Mortal Kombat: Annihilation (1997) Remux 1080p 2хUkr/Eng | Sub Eng


Жанр: екшн, пригодницький, фентезі
Країна: США



Кінокомпанія: New Line Cinema, Threshold Entertainment
Режисер: Джон Леонетті [John R. Leonetti]
Актори: Робін Шу [Robin Shou], Таліса Сото [Talisa Soto], Сандра Гесс [Sandra Hess], Лінн Ред Вільямс [Lynn 'Red' Williams], Джеймс Ремар [James Remar], Кейт Кук [Keith Cooke], Дж. Дж. Перрі [J.J. Perry], Брайан Томпсон [Brian Thompson], Кріс Конрад [Chris Conrad], Дерон Макбі [Deron McBee], Дана Гі [Dana Hee], Рейнер Шоун [Reiner Schöne], Мусетта Вандер [Musetta Vander], Марджін Голден [Marjean Holden], Ірина Пантаєва [Irina Pantaeva], Джон Медлен [John Medlen], Рей Парк [Ray Park], Рідлі Цуй [Ridley Tsui], Ланс Леголт [Lance LeGault], Керолін Симор [Carolyn Seymour], Марк Касо [Mark Caso], Султан Уддін [Sultan Uddin].

Сюжет:
Після поразки в останньому турнірі Смертельної Битви сили зла віроломно вторгаються в Земний Світ. Шао Кан, імператор Зовнішнього Світу, порушивши священні правила турніру, вирішує силою захопити Землю. Він відкриває портал між світами, використавши королеву Сіндел як ключ для проникнення...



Тривалість: 01:34:46
Якість: Remux 1080p
Відео:
кодек:
розмір кадру: 1920 х 1080
бітрейт: 19,8 Мб/с

Аудіо # 1:
мова: українська
переклад: багатоголосий закадровий | Даний звук узято з VHS
кодек: 5.1
бітрейт: 448 кб/с
примітка: назву перекладено як "Мортал Комбат: Цілковите знищення"

Аудіо # 2:
мова: українська
переклад: двоголосий закадровий
кодек: 5.1
бітрейт: 384 кб/с
примітка: назву перекладено як "Мортал Комбат: Винищення"

Аудіо # 3:
мова: англійська
переклад: оригінал
кодек: -HD MA 5.1
бітрейт: 4268 кб/с

Аудіо # 4:
мова: англійська
переклад: оригінал
кодек: 5.1
бітрейт: 384 кб/с

Субтитри:
мова: англійська
тип: пререндерні
формат: *.pgs
Info
General
Unique ID : 86866757110154625960015848987341753699 (0x4159EDCA5C48C68F5385FE5BF22E0D63)
Complete name : E:\Фентезі, екшн\Mortal Kombat (1995-1997) Remux 1080p\Mortal Kombat Annihilation (1997) Remux 1080p 2хUkrEng Sub Eng [Hurtom].
Format :
Format version : Version 4 / Version 2
File size : 16.8 GiB
Duration : 1 h 35 min
Overall bit rate mode : Variable
Overall bit rate : 25.1 Mb/s
Movie name : Мортал Комбат: Винищення / Мортал Комбат: Цілковите знищення / Mortal Kombat: Annihilation (1997) Remux 1080p 2хUkr/Eng | Sub Eng [Hurtom]
Encoded date : UTC 2019-05-22 20:41:42
Writing application : v25.0.0 ('Prog Noir') 64-bit
Writing library : libebml v1.3.6 + v1.4.9

Video
ID : 1
Format : AVC
Format/Info : Advanced Video Codec
Format profile : [email protected]
Format settings, CABAC : Yes
Format settings, RefFrames : 2 frames
Format settings, GOP : M=1, N=10
Codec ID : V_MPEG4/ISO/AVC
Duration : 1 h 34 min
Bit rate mode : Variable
Bit rate : 19.8 Mb/s
Width : 1 920 pixels
Height : 1 080 pixels
Display aspect ratio : 16:9
Frame rate mode : Constant
Frame rate : 23.976 (24000/1001) FPS
Color space : YUV
Chroma subsampling : 4:2:0
Bit depth : 8 bits
Scan type : Progressive
Bits/(Pixel*Frame) : 0.399
Stream size : 13.1 GiB (78%)
Title : Mortal Kombat: Annihilation (1997) Remux 1080p 2хUkr/Eng | Sub Eng [Hurtom]
Language : Ukrainian
Default : Yes
Forced : Yes

Audio #1
ID : 2
Format : AC-3
Format/Info : Audio Coding 3
Format settings, Endianness : Big
Codec ID : A_AC3
Duration : 1 h 34 min
Bit rate mode : Constant
Bit rate : 448 kb/s
Channel(s) : 6 channels
Channel positions : Front: L C R, Side: L R, LFE
Sampling rate : 48.0 kHz
Frame rate : 31.250 FPS (1536 SPF)
Bit depth : 16 bits
Compression mode : Lossy
Stream size : 304 MiB (2%)
Title : MVO [INTER] 5.1
Language : Ukrainian
Service kind : Complete Main
Default : Yes
Forced : Yes

Audio #2
ID : 3
Format : AC-3
Format/Info : Audio Coding 3
Format settings, Endianness : Big
Codec ID : A_AC3
Duration : 1 h 34 min
Bit rate mode : Constant
Bit rate : 384 kb/s
Channel(s) : 6 channels
Channel positions : Front: L C R, Side: L R, LFE
Sampling rate : 48.0 kHz
Frame rate : 31.250 FPS (1536 SPF)
Bit depth : 16 bits
Compression mode : Lossy
Delay relative to video : 3 s 0 ms
Stream size : 260 MiB (2%)
Title : DVO 5.1
Language : Ukrainian
Service kind : Complete Main
Default : No
Forced : No

Audio #3
ID : 4
Format :
Format/Info : Digital Theater Systems
Format profile : MA / Core
Mode : 16
Format settings, Endianness : Big
Codec ID : A_DTS
Duration : 1 h 35 min
Bit rate mode : Variable / Constant
Bit rate : 4 268 kb/s / 1 509 kb/s
Channel(s) : 6 channels
Channel positions : Front: L C R, Side: L R, LFE
Sampling rate : 48.0 kHz
Frame rate : 93.750 FPS (512 SPF)
Bit depth : 24 bits
Compression mode : Lossless / Lossy
Stream size : 2.85 GiB (17%)
Title : Original -HD MA 5.1
Language : English
Default : No
Forced : No

Audio #4
ID : 5
Format : AC-3
Format/Info : Audio Coding 3
Format settings, Endianness : Big
Codec ID : A_AC3
Duration : 1 h 34 min
Bit rate mode : Constant
Bit rate : 384 kb/s
Channel(s) : 6 channels
Channel positions : Front: L C R, Side: L R, LFE
Sampling rate : 48.0 kHz
Frame rate : 31.250 FPS (1536 SPF)
Bit depth : 16 bits
Compression mode : Lossy
Stream size : 260 MiB (2%)
Title : Original 5.1
Language : English
Service kind : Complete Main
Default : No
Forced : No

Text
ID : 6
Format : PGS
Muxing mode : zlib
Codec ID : S_HDMV/PGS
Codec ID/Info : Picture based subtitle format used on BDs/HD-DVDs
Duration : 1 h 33 min
Bit rate : 19.4 kb/s
Count of elements : 1536
Stream size : 13.0 MiB (0%)
Title : Eng
Language : English
Default : No
Forced : No
Скріншоти
Джерело: &
Особиста подяка п. Zeus62 і п. ua2004 за українські доріжки
Особиста оцінка: 8 - мені сподобалося




Золотий реліз (завантажене не впливає на рейтинг)
 Трекер:    Зареєстрований   

Завантажити / скачати фільм українською



відео для новачків



 Зареєстрований:   2019-05-23 01:05
 Розмір:   16.8 GB 
 Оцінка фільму:   9.6/10 (Голосів: 7)
   
advokaatoff 
Новенький


З нами з: 12.07.13
Востаннє: 17.06.19
Повідомлень: 1

2019-05-24 14:08  
навіть в дитинстві дивився... і усвідомлював, що дно вже пробито))
itehap33 
Новенький


З нами з: 28.02.19
Востаннє: 25.05.19
Повідомлень: 1

2019-05-25 19:53  
Це просто щось! Дякую тим хто попрацював над релізом!!! Я вас люблю)))
Ваш часовий пояс: GMT + 2 Години

Нова тема   Відповісти