Доктор Хто (Сезон 5) / Doctor Who (Season 5) (2010) 720p Ukr/Eng

Нові коментарі

Нова тема   Відповісти
Автор Повідомлення
Anonymous 







2019-05-21 15:10  
Доктор Хто (Сезон 5) / Doctor Who (Season 5) (2010) 720p Ukr/Eng



Жанр: пригодницький, драма, сімейний
Країна: Велика Британія



Кінокомпанія: BBC
Режисер: Грем Харпер, Ерос Лін, Дуглас Маккінон.
Актори: Мет Сміт, Карен Гілан, Артур Дарвіл, Іен МакНіс, Алекс Кінгстон, Саймон Фішер-Бекер.

Сюжет:
За сюжетом, Доктор Хто - легендарний міжгалактичний герой, знаменитий шукач пригод і мандрівник крізь простір і час. У тих далеких світах, звідки він прибув, перед ним схиляються і називають Володарем часу. Його місія - врятувати людську расу від інопланетян, які готуються захопити Землю та знищити людей. Прибульці вже серед нас, вони розсіялися серед людей, але їх підступному задумом ще можна перешкодити.


Тривалість: 1 серія: 50хв (цілком серій: 13 з 13)
Перелік серій
1.The Eleventh Hour / Одинадцята година
2.The Beast Below / Звір унизу
3.Victory of the Daleks / Перемога Далеків
4.The Time of Angels / Час янголів
5.Flesh and Stone / Плоть і камінь
6.The Vampires of Venice / Вампіри Венеції
7.Amy's Choice / Вибір Емі
8.The Hungry Earth / Голодна земля
9.Cold Blood / Холодна Кров
10.Vincent and the Doctor / Вінсент і Доктор
11.The Lodger / Квартирант
12.The Pandorica Opens / Пандорика відчиняється
13.The Big Bang / Великий вибух
Якість:
Відео:
кодек:
розмір кадру: 1280 х 720
бітрейт: 6100 кб/с

Аудіо # 1:
мова: українська
переклад: багатоголосий закадровий | Ролі озвучили: Олександр Солодкий, Михайло Войчук, Єлизавета Зіновенко та Юлія Малахова.
кодек: 2.0
бітрейт: 192 кб/с

Аудіо # 2:
мова: англійська
переклад: оригінал
кодек: 5.1
бітрейт: 384 кб/с
Info
Video
ID : 1
Format : AVC
Format/Info : Advanced Video Codec
Format profile : [email protected]
Format settings : CABAC / 3 Ref Frames
Format settings, CABAC : Yes
Format settings, ReFrames : 3 frames
Codec ID : V_MPEG4/ISO/AVC
Duration : 1 h 2 min
Bit rate : 6 100 kb/s
Width : 1 280 pixels
Height : 720 pixels
Display aspect ratio : 16:9
Frame rate mode : Constant
Frame rate : 25.000 FPS
Color space : YUV
Chroma subsampling : 4:2:0
Bit depth : 8 bits
Scan type : Progressive
Bits/(Pixel*Frame) : 0.265
Stream size : 2.57 GiB (91%)
Title : The Eleventh Hour
Writing library : core 116 r2019M 9cc407d
Encoding settings : cabac=1 / ref=3 / deblock=1:-1:-1 / analyse=0x3:0x133 / me=tesa / subme=10 / psy=1 / psy_rd=1.00:0.15 / mixed_ref=1 / me_range=16 / chroma_me=1 / trellis=2 / 8x8dct=1 / cqm=0 / deadzone=21,11 / fast_pskip=1 / chroma_qp_offset=-3 / threads=8 / sliced_threads=0 / nr=0 / decimate=1 / interlaced=0 / bluray_compat=0 / constrained_intra=0 / bframes=3 / b_pyramid=1 / b_adapt=2 / b_bias=0 / direct=3 / weightb=1 / open_gop=0 / weightp=2 / keyint=250 / keyint_min=25 / scenecut=40 / intra_refresh=0 / rc_lookahead=40 / rc=cbr / mbtree=1 / bitrate=6100 / ratetol=1.0 / qcomp=0.60 / qpmin=10 / qpmax=51 / qpstep=4 / vbv_maxrate=6100 / vbv_bufsize=6100 / nal_hrd=none / ip_ratio=1.40 / aq=1:1.00
Language : English
Default : Yes
Forced : No

Audio #1
ID : 2
Format : AC-3
Format/Info : Audio Coding 3
Commercial name : Dolby Digital
Codec ID : A_AC3
Duration : 1 h 2 min
Bit rate mode : Constant
Bit rate : 192 kb/s
Channel(s) : 2 channels
Channel layout : L R
Sampling rate : 48.0 kHz
Frame rate : 31.250 FPS (1536 SPF)
Bit depth : 16 bits
Compression mode : Lossy
Stream size : 86.0 MiB (3%)
Title : MVO - K1
Language : Ukrainian
Service kind : Complete Main
Default : Yes
Forced : No

Audio #2
ID : 3
Format : LC
Format/Info : Advanced Audio Codec Low Complexity
Codec ID : A_AAC-2
Duration : 1 h 2 min
Bit rate : 384 kb/s
Channel(s) : 6 channels
Channel layout : C L R Ls Rs LFE
Sampling rate : 48.0 kHz
Frame rate : 46.875 FPS (1024 SPF)
Compression mode : Lossy
Stream size : 172 MiB (6%)
Title : English
Language : English
Default : No
Forced : No
Скріншоти













Подяка: панам Петров Микола та drakon87 за сирий звук.
Джерело:
Особиста оцінка: 10 - без зайвих вагань рекомендую всім!





Бронзовий реліз (на рейтинг впливає 75% завантаженого)
 Трекер:    Зареєстрований   

Завантажити / скачати серіал українською



відео для новачків



 Зареєстрований:   2019-06-03 16:00
 Розмір:   25.36 GB 
 Оцінка серіалу:   9.9/10 (Голосів: 23)
   
Anonymous 







2019-05-21 15:17  
Цікавенько так вийшло, що К1 дали серіалу рейтинг 16+
empired 
Частий відвідувач


З нами з: 09.11.12
Востаннє: 23.11.20
Повідомлень: 40

2019-05-21 17:03  
Несподівано побачив на к1, невже "офіційне повернення" Інформацію щодо цього ніхто не бачив?
Anonymous 







2019-05-21 17:12  
empired написано:
Інформацію щодо цього ніхто не бачив?

канал покаже 5, 6, 7 сезони.

UPD: + 2-3 серії.

Neytreenor 
Відео Гуртом - запис з ТБ
Відео Гуртом - запис з ТБ


З нами з: 03.04.11
Востаннє: 27.11.20
Повідомлень: 2904

2019-05-21 21:17  
Поклацав трохи перші три серії - щось геть не сподобалось озвучення. Невдало підібрані голоси і якось криво зведено. Хоча може то в мене сильно завищені очікування були.
Anonymous 







2019-05-21 21:25  
Neytreenor
мені по першій серії також не сподобалося, але подивився усі 3 то вже і норм, хоч таке озвучення маємо.

Seriy100293 
VIP


З нами з: 17.08.11
Востаннє: 27.11.20
Повідомлень: 464

2019-05-22 12:56  
А AVC планується?
Anonymous 







2019-05-22 14:11  
Seriy100293 написано:
А AVC планується?


я ріпів не знаходив, але якщо знайдете то можу скинути звук для роздачі.

Seriy100293 
VIP


З нами з: 17.08.11
Востаннє: 27.11.20
Повідомлень: 464

2019-05-22 18:09  
Anonymous
Теж не бачу. Кому можна замовити зробити такий ріп?

Anonymous 







2019-05-22 20:14  
Seriy100293 написано:
Кому можна замовити зробити такий ріп?


Якщо знайдуться ремукси, то я зможу, але тільки після усіх показаних сезонів.

+ 4-5 серії. наступні оновлення будуть на вихідних.

Seriy100293 
VIP


З нами з: 17.08.11
Востаннє: 27.11.20
Повідомлень: 464

2019-05-22 21:49  
Ех, трохи довго...
Anonymous 







2019-05-22 22:39  
Seriy100293 написано:
Ех, трохи довго...


знайшов нормальні авц - ріпи.
на вихідних і його зроблю мабуть.

Seriy100293 
VIP


З нами з: 17.08.11
Востаннє: 27.11.20
Повідомлень: 464

2019-05-23 09:58  
Чудова новина!
Cartwright 
VIP


З нами з: 23.03.13
Востаннє: 27.11.20
Повідомлень: 393

2019-05-24 19:30  
Гарна інтерівська озвучка. Мабуть просто для тих хто знає голос самого Сміта трохи незвично чути такий звичайний голос. Все ж у Сміта акцент доволі такий гарний, який було б гарно і нам передавати. Проте сумніваюсь, що таких акторів озвучки у нас багато. Тепер цікаво, хто в кіно Сміта дублює.

Додано через 3 хвилини 48 секунд:

Все ж 11 мій улюблений Доктор. І Доктор, і його супутники в цих сезонах дуже класні. Та й сама історія чудова. Це доволі рідко з цим серіалом трапляється.

tilda4334 
Попереджень: 1
Попереджень: 1 


З нами з: 15.08.14
Востаннє: 27.11.20
Повідомлень: 1181

2019-05-24 19:34  
Ролі озвучили: Олександр Солодкий, Михайло Войчук та 1 жіночий
Cartwright 
VIP


З нами з: 23.03.13
Востаннє: 27.11.20
Повідомлень: 393

2019-05-24 19:45  
Деякі голоси нагадали озвучку НеЗупиняйПродакшн. Не знаю, чи вони. Проте у Майндхантера схожі голоси були. Два чоловічі голоси схожі на голоси головних героїв Майндхантера.

Додано через 21 секунду:

Петров Микола написано:
Ролі озвучили: Олександр Солодкий, Михайло Войчук

Схоже мій слух не помилився.

Додано через 4 хвилини 13 секунд:

Ось і відповідь на запити тих, хто хотів замовити Доктора у НеЗупиняйПродакшн. Було б щось схоже на це.

Anonymous 







2019-05-29 22:50  
+ 6-10 серії.
Seriy100293 
VIP


З нами з: 17.08.11
Востаннє: 27.11.20
Повідомлень: 464

2019-06-02 12:31  
Було б чулово, якби хтось озвучив маленькі епізоди "Тим часом у ТАРДІС" з цього ж сезону.
Anonymous 







2019-06-03 16:04  
+ 11-13 серії, повний сезон.
ivasykus 
VIP


З нами з: 10.02.09
Востаннє: 27.11.20
Повідомлень: 603

2019-06-05 18:59  
А Різдвяний епізод по К1 показали?
Anonymous 







2019-06-06 12:45  
ivasykus написано:
А Різдвяний епізод по К1 показали?


6 сезону так, а 4го ні.

Ваш часовий пояс: GMT + 2 Години

Нова тема   Відповісти