Мортал Комбат / Mortal Kombat (1995) Remux 1080p Ukr/Eng | Sub Eng

Нові коментарі

Нова тема   Відповісти
Автор Повідомлення
MakRA 
VIP


З нами з: 11.11.18
Востаннє: 19.09.20
Повідомлень: 1115

2019-05-21 00:30  
Мортал Комбат / Mortal Kombat (1995) Remux 1080p Ukr/Eng | Sub Eng

Мортал Комбат / Mortal Kombat (1995) Remux 1080p Ukr/Eng | Sub Eng

Український постер:


Альтернативні обкладинки і постери:



Жанр: екшн, пригодницький, фентезі
Країна: США



Кінокомпанія: New Line Cinema, Threshold Entertainment
Режисер: Пол Андерсон [Paul W.S. Anderson]
Актори: Крістофер Ламберт [Christopher Lambert], Робін Шу [Robin Shou], Лінден Ешбі [Linden Ashby], Бріджіт Вілсон [Bridgette Wilson-Sampras], Кері-Хіроюкі Тагава [Cary-Hiroyuki Tagawa], Таліса Сото [Talisa Soto], Тревор Годдар [Trevor Goddard], Кріс Касамасса [Chris Casamassa], Франсуа Петі [François Petit], Кіт Кук [Keith Cooke], Стівен Хо [Steven Ho], Ед Бун [Ed Boon].

Сюжет:
Темні сили із потойбічного світу вирішили захопити світ людей. Але традиційно перед окупацією нових світів, володар Шао-Кан та його чаклун Шан-Цун влаштовує ритуальні двобої між своїми воїнами та найкращими бійцями світу, який планують підкорити.
Цього разу на турнірі "Смертельна битва" буде вирішуватись доля Землі…

Цікаве про фільм:

-У книзі, написаній за сюжетом фільму, Соня не вбиває Кано. Також Джонні Кейдж — єдиний з головних персонажів не присутній в книзі.
-Спочатку, роль Соні Блейд повинна була зіграти Камерон Діас, але не змогла цього зробити, так як перед початком зйомок зламала зап'ястя.
-Скорпіона озвучив Ед Бун, один з творців відеогри «Mortal Kombat».
-Сюжет фільму багато в чому заснований на фільмі «Вихід дракона» (1973).
-Коли Рептилія «вселяється» в одну із статуй і перетворюється на зеленого бійця-ніндзя, чутний закадровий голос, що вимовляє: «Рептилія» (Reptile). Голос належить Шао Кану, і був узятий з оригінальною відеогри «Mortal Kombat II».
-З сценарію вирізали сцену, в якій Шан Цзун дозволяв бійцям поховати Арт Ліна в Саду Статуй, поруч зі статуєю Кун Лао. Також в сценарії присутній поєдинок між Сонею і Джейд.
-На роль Лю Кана пробувалися Джейсон Скотт Лі, Рассел Вонг і Філліп Рі.
-Жан-Клод Ван Дамм міг зіграти Джонні Кейджа, але відмовився від цієї ролі, віддавши перевагу участь у фільмі « Вуличний боєць». Також роль Джонні Кейджа пропонувалася Брендону Лі, але той пішов зніматися у фільм Ворон.
-Під час зйомок поєдинку Лю Кана з рептиліями, Кейт Кук-Хірабаясі (Рептилія) зламав ребра Робіну Шу (Лю Кан), проте той нічого не сказав і зйомки тривали.
-Спочатку передбачалося, що фільм закінчиться відразу ж після слів Рейд: «Я повинен вам сказати, хлопці, — ви відмінно постаралися». Але була знята додаткова сцена, в якій раптово з'являється Імператор і каже: "Ви слабкі жалюгідні дурні. Я прийшов за вашими душами! ". На що Рейден відповідає: «Я так не думаю». Після чого, він і інші бійці готуються до битви.
-Кріс Касамасса споконвічно розглядався одним з численних ніндзя для масовки, але на кастингу він настільки вразив продюсерів, що вони запропонували йому роль Скорпіона.
-Зйомки Храму Ордена Світла проходили в Таїланді, в храмі Ват-Чайваттханарам, в 100 км на північ від Бангкока, а не в Китаї, як вказувалося в субтитрах.


Тривалість: 01:41:25
Якість: Remux 1080p
Відео:
кодек:
розмір кадру: 1920 х 1080
бітрейт: 20 Мб/с

Аудіо # 1:
мова: українська
переклад: багатоголосий закадровий
кодек: 5.1
бітрейт: 448 кб/с

Аудіо # 2:
мова: англійська
переклад: оригінал
кодек: -HD MA 5.1
бітрейт: 4176 кб/с

Аудіо # 3:
мова: англійська
переклад: оригінал
кодек: 5.1
бітрейт: 224 кб/с

Субтитри:
мова: англійська
тип: пререндерні
формат: *.pgs

Збережено оригінальні розділи, як на Blu-ray.
Info
General
Unique ID : 278360892332088429241839440010728899609 (0xD16A5B980D304A8C141AFC47E1030419)
Complete name : E:\Фентезі, екшн\Mortal Kombat (1995-1997) Remux 1080p\Mortal Kombat (1995) Remux 1080p UkrEng Sub Eng [Hurtom].
Format :
Format version : Version 4 / Version 2
File size : 17.6 GiB
Duration : 1 h 41 min
Overall bit rate mode : Variable
Overall bit rate : 24.8 Mb/s
Movie name : Мортал Комбат / Mortal Kombat (1995) Remux 1080p Ukr/Eng | Sub Eng [Hurtom]
Encoded date : UTC 2019-05-20 17:15:19
Writing application : v25.0.0 ('Prog Noir') 64-bit
Writing library : libebml v1.3.6 + v1.4.9

Video
ID : 1
Format : AVC
Format/Info : Advanced Video Codec
Format profile : [email protected]
Format settings, CABAC : Yes
Format settings, RefFrames : 2 frames
Format settings, GOP : M=1, N=10
Codec ID : V_MPEG4/ISO/AVC
Duration : 1 h 41 min
Bit rate mode : Variable
Bit rate : 20.0 Mb/s
Width : 1 920 pixels
Height : 1 080 pixels
Display aspect ratio : 16:9
Frame rate mode : Constant
Frame rate : 23.976 (24000/1001) FPS
Color space : YUV
Chroma subsampling : 4:2:0
Bit depth : 8 bits
Scan type : Progressive
Bits/(Pixel*Frame) : 0.401
Stream size : 14.1 GiB (80%)
Title : Mortal Kombat (1995) Remux 1080p Ukr/Eng | Sub Eng [Hurtom]
Language : Ukrainian
Default : Yes
Forced : Yes

Audio #1
ID : 2
Format : AC-3
Format/Info : Audio Coding 3
Format settings, Endianness : Big
Codec ID : A_AC3
Duration : 1 h 41 min
Bit rate mode : Constant
Bit rate : 448 kb/s
Channel(s) : 6 channels
Channel positions : Front: L C R, Side: L R, LFE
Sampling rate : 48.0 kHz
Frame rate : 31.250 FPS (1536 SPF)
Bit depth : 16 bits
Compression mode : Lossy
Stream size : 325 MiB (2%)
Title : MVO [НОВИЙ]
Language : Ukrainian
Service kind : Complete Main
Default : Yes
Forced : Yes

Audio #2
ID : 3
Format :
Format/Info : Digital Theater Systems
Format profile : MA / Core
Mode : 16
Format settings, Endianness : Big
Codec ID : A_DTS
Duration : 1 h 41 min
Bit rate mode : Variable / Constant
Bit rate : 4 176 kb/s / 1 509 kb/s
Channel(s) : 6 channels
Channel positions : Front: L C R, Side: L R, LFE
Sampling rate : 48.0 kHz
Frame rate : 93.750 FPS (512 SPF)
Bit depth : 24 bits
Compression mode : Lossless / Lossy
Stream size : 2.96 GiB (17%)
Title : Original -HD MA 5.1
Language : English
Default : No
Forced : No

Audio #3
ID : 4
Format :
Format/Info : Advanced Audio Codec
Format profile : LC
Codec ID : A_AAC
Duration : 1 h 41 min
Bit rate : 224 kb/s
Channel(s) : 6 channels
Channel positions : Front: L C R, Side: L R, LFE
Sampling rate : 48.0 kHz
Frame rate : 46.875 FPS (1024 SPF)
Compression mode : Lossy
Stream size : 162 MiB (1%)
Title : Original 5.1
Language : English
Default : No
Forced : No

Text
ID : 5
Format : PGS
Muxing mode : zlib
Codec ID : S_HDMV/PGS
Codec ID/Info : Picture based subtitle format used on BDs/HD-DVDs
Duration : 1 h 40 min
Bit rate : 17.5 kb/s
Count of elements : 1554
Stream size : 12.6 MiB (0%)
Title : Eng
Language : English
Default : No
Forced : No

Menu
00:00:00.000 : en:Main Title
00:00:50.133 : en:"Your Brother's Soul is Mine"
00:02:39.284 : en:Sonya Blade
00:04:50.415 : en:Johny Cage
00:07:56.893 : en:The Temple of Light, China
00:12:10.354 : en:Chai Wan Bay, Hong Kong
00:15:35.935 : en:Scorpian and Sub-Zero
00:18:15.219 : en:The Chosen One
00:21:30.372 : en:Arrival on the Island
00:25:00.832 : en:A Taste of Things to Come
00:29:01.030 : en:Kano and the Prince
00:36:24.557 : en:Dumb and Ugly
00:39:41.670 : en:The Tournament
00:42:41.850 : en:Something for Sonya
00:45:38.527 : en:Johnny's Turn
00:50:59.473 : en:Tip from the Princess
00:52:52.252 : en:The Element Which Brings Life
00:56:08.281 : en:Goro's Fury
01:00:15.028 : en:The Fear Inside
01:05:48.653 : en:Johnny vs. Goro
01:09:06.016 : en:The Abduction of Sonya
01:10:51.956 : en:Into Outworld
01:17:09.666 : en:The Black Tower
01:20:50.470 : en:Liu vs. Shang Tsung
01:23:53.987 : en:"Face Your Worst Fear"
01:30:26.629 : en:The Emperor
01:31:34.864 : en:End Credits
Скріншоти
Джерело: &
Особиста оцінка: 10 - без зайвих вагань рекомендую всім!
За українську доріжку дякую п. Zeus62
За постер дякую п. abodnya




Золотий реліз (завантажене не впливає на рейтинг)
 Трекер:    Зареєстрований   

Завантажити / скачати фільм українською



відео для новачків



 Зареєстрований:   2019-05-21 00:30
 Розмір:   17.58 GB 
 Оцінка фільму:   9.7/10 (Голосів: 16)
   
Інші релізи
   Мортал Комбат / Mortal Kombat (1995) 720p Ukr/Eng | Sub Eng -_-B_Е_N_D_E_R-_-  2 / 0   4.72 GB   2020-03-21 12:31 
   Мортал Комбат / Mortal Kombat (1995) 1080p H.265 Ukr/Eng | Sub Eng -Star-Lord-  1 / 0   10.23 GB   2020-02-22 15:01 
   Мортал Комбат / Mortal Kombat (1995) 1080p Ukr/Eng | Sub Eng staf777  5 / 0   9.98 GB   2020-02-19 05:54 
   Мортал Комбат / Mortal Kombat (1995) AVC Ukr/Eng | sub Eng Arsenfpu  2 / 0   1.61 GB   2019-01-07 11:18 
   Мортал Комбат / Mortal Kombat (1995) 720p Zeus62  1 / 0   4.3 GB   2011-10-27 17:16 
   Мортал Комбат / Mortal Kombat (1995) Ukr/Eng ua2004  7 / 0   1.93 GB   2009-07-31 12:24 
Ваш часовий пояс: GMT + 2 Години

Нова тема   Відповісти