Години / The Hours (2002)

Нові коментарі

Нова тема   Відповісти
Автор Повідомлення
Anonymous 







2019-05-19 23:28  
Години / The Hours (2002)

Години / The Hours (2002)
Оригінальна обкладинка:

Години / The Hours (2002)


Жанр: драма, мелодрама
Країна: США, Велика Британія

Оскар, по 2 Золотих глобуса, премії Британської кіноакадемії та Берлінського кінофестивалю



Кінокомпанія: Miramax Films, Paramount Pictures (США)
Режисер: Стівен Долдрі
Актори: Ніколь Кідман / Nicole Kidman, Меріл Стріп / Meryl Streep, Джуліан Мур / Julianne Moore, Ед Гаріс / Ed Harris, Міранда Річардсон, Клер Дейнс, Джон Сі Рейлі, Джеф Деніелс, Тоні Коллетт, Крістіан Коулсон, Стівен Діллейн, Майкл Канінгем та інші

Сюжет:
Стрічка поєднує три сюжетні лінії, пов'язані з письменницею Вірджинією Вулф (Ніколь Кідман). Перша - історія самої Вулф. Друга - розповідь про Лору Браун (Джуліана Мур), яка зачитується романом Вулф «Місіс Делловей». Третя - вечірка на честь хворого на СНІД письменника, яку організовує його давня подруга Клариса Вон на прізвисько «Місіс Делловей»...
Екранізація роману лауреата Пуліцерівської премії Майкла Каннінгема, де навіть другорядні ролі виконують знамениті актори, не могла не стати одним з фаворитів критиків і лауреатом численних кінонагород. Комбінуючи сюжетні лінії, Долдрі («Біллі Елліот») орієнтувався на роботи Роберта Олтмена та Пола Томаса Андерсона, хоча його мозаїка з історій про різних людей вийшла не такою витонченою і вигадливою, як картини двох видатних режисерів («Короткі відрізки», «Магнолія»). Однак «Години» є цікавим дослідженням психології розчарованих у житті жінок у різні епохи, тим паче, що три головні виконавиці (Кідман, Стріп, Мур) грають блискуче.
Оригінальний трейлер:

Рейтинг MPAA: PG-13 - дітям до 13 років перегляд не бажаний
Вікова категорія: 14+

Тривалість: 01:50:00
Якість:

Відео:
кодек:
розмір кадру: 720 х 384
бітрейт: 1926 кб/с

Аудіо:
мова: українська
переклад: багатоголосий закадровий
кодек: 2.0 [стерео]
бітрейт: 192 кб/с
Info
Код:
General
Complete name               : The Hours (2002) [Ukr] [Hurtom].avi
Format                      : AVI
Format/Info                 : Audio Video Interleave
File size                   : 1.63 GiB
Duration                    : 1 h 50 min
Overall bit rate            : 2 127 kb/s
Movie name                  : Години / The Hours (2002) [Ukr] [Hurtom]
Writing application         : VirtualDubModUkr 1.5.10.2 (build 2542/release)
Writing library             : VirtualDubMod build 2542/release

Video
ID                          : 0
Format                      : MPEG-4 Visual
Format profile              : Advanced [email protected]
Format settings             : BVOP1 / Custom Matrix
Format settings, BVOP       : 1
Format settings, QPel       : No
Format settings, GMC        : No warppoints
Format settings, Matrix     : Custom
Codec ID                    :
Codec ID/Hint               :
Duration                    : 1 h 50 min
Bit rate                    : 1 926 kb/s
Width                       : 704 pixels
Height                      : 384 pixels
Display aspect ratio        : 1.85:1
Frame rate                  : 25.000 FPS
Color space                 : YUV
Chroma subsampling          : 4:2:0
Bit depth                   : 8 bits
Scan type                   : Progressive
Compression mode            : Lossy
Bits/(Pixel*Frame)          : 0.285
Stream size                 : 1.48 GiB (91%)
Writing library             : 67

Audio
ID                          : 1
Format                      : AC-3
Format/Info                 : Audio Coding 3
Commercial name             : Dolby Digital
Codec ID                    : 2000
Duration                    : 1 h 49 min
Bit rate mode               : Constant
Bit rate                    : 192 kb/s
Channel(s)                  : 2 channels
Channel layout              : L R
Sampling rate               : 48.0 kHz
Frame rate                  : 31.250 FPS (1536 SPF)
Bit depth                   : 16 bits
Compression mode            : Lossy
Stream size                 : 151 MiB (9%)
Alignment                   : Split across interleaves
Interleave, duration        : 40  ms (1.00 video frame)
Interleave, preload duratio : 500  ms
Title                       : UKR MVO [AMC]
Service kind                : Complete Main


Джерело: &
Подяка п.kryk-v.ya. за наданий запис та п.Ham_R за український постер.


Срібний реліз (на рейтинг впливає 50% завантаженого)
 Трекер:    Зареєстрований   

Завантажити / скачати фільм українською



відео для новачків



 Зареєстрований:   2019-05-19 23:28
 Розмір:   1.63 GB 
 Оцінка фільму:   9.5/10 (Голосів: 4)
 ЗАЛИШАЙТЕСЬ ЯКОМОГА ДОВШЕ НА РОЗДАЧІ! ЗАВАНТАЖИВ САМ - ДАЙ ЗАВАНТАЖИТИ ІНШИМ!
   
Інші релізи
   Години / The Hours (2002) AVC Ukr/Eng | Sub Eng igor911  7 / 0   2.96 GB   2019-05-19 23:07 
   Години / The Hours (2002) 720p Ukr/Eng | Sub Eng igor911  3 / 0   5.56 GB   2019-05-19 22:29 
   Години / The Hours (2002) Remux 1080p Ukr/Eng | Sub Eng kryk-v.ya.  2 / 0   15.46 GB   2019-05-18 19:48 
Ваш часовий пояс: GMT + 2 Години

Нова тема   Відповісти