Години / The Hours (2002) AVC Ukr/Eng | Sub Eng

Нові коментарі

Нова тема   Відповісти
Автор Повідомлення
Anonymous 







2019-05-19 22:59  
Години / The Hours (2002) AVC Ukr/Eng | Sub Eng

Години / The Hours (2002) AVC Ukr/Eng | Sub Eng
Оригінальна обкладинка:

Години / The Hours (2002) AVC Ukr/Eng | Sub Eng


Жанр: драма, мелодрама
Країна: США, Велика Британія

Оскар, по 2 Золотих глобуса, премії Британської кіноакадемії та Берлінського кінофестивалю



Кінокомпанія: Paramount Pictures, Miramax, Scott Rudin Productions
Режисер: Стівен Долдрі
Актори: Ніколь Кідман / Nicole Kidman, Меріл Стріп / Meryl Streep, Джуліан Мур / Julianne Moore, Ед Гаріс / Ed Harris, Міранда Річардсон, Клер Дейнс, Джон Сі Рейлі, Джеф Деніелс, Тоні Коллетт, Крістіан Коулсон, Стівен Діллейн, Майкл Канінгем та інші

Сюжет:
Стрічка поєднує три сюжетні лінії, пов'язані з письменницею Вірджинією Вулф (Ніколь Кідман). Перша - історія самої Вулф. Друга - розповідь про Лору Браун (Джуліана Мур), яка зачитується романом Вулф «Місіс Делловей». Третя - вечірка на честь хворого на СНІД письменника, яку організовує його давня подруга Клариса Вон на прізвисько «Місіс Делловей»...
Екранізація роману лауреата Пуліцерівської премії Майкла Каннінгема, де навіть другорядні ролі виконують знамениті актори, не могла не стати одним з фаворитів критиків і лауреатом численних кінонагород. Комбінуючи сюжетні лінії, Долдрі («Біллі Елліот») орієнтувався на роботи Роберта Олтмена та Пола Томаса Андерсона, хоча його мозаїка з історій про різних людей вийшла не такою витонченою і вигадливою, як картини двох видатних режисерів («Короткі відрізки», «Магнолія»). Однак «Години» є цікавим дослідженням психології розчарованих у житті жінок у різні епохи, тим паче, що три головні виконавиці (Кідман, Стріп, Мур) грають блискуче.
Оригінальний трейлер:

Рейтинг MPAA: PG-13 - дітям до 13 років перегляд не бажаний
Вікова категорія: 14+

Тривалість: 01:50:01
Якість: AVC

Відео:
кодек:
розмір кадру: 1024 х 554
бітрейт: 3210 кб/с

Аудіо # 1:
мова: українська
переклад: багатоголосий закадровий
кодек: 2.0 [стерео]
бітрейт: 192 кб/с

Аудіо # 2:
мова: англійська
переклад: оригінал
кодек: 5.1
бітрейт: 448 кб/с

Субтитри:
мова: англійська
тип: програмні (м'які)
формат: *.srt

Збережено оригінальні розділи, як на Blu-ray
Info
Код:

Complete name               : The Hours (2002) [Ukr,Eng sub.Eng] AVC [Hurtom].
Format                      :
Format version              : Version 4
File size                   : 2.96 GiB
Duration                    : 1 h 50 min
Overall bit rate            : 3 846 kb/s
Movie name                  : Години / The Hours (2002) [Ukr,Eng sub.Eng] AVC [Hurtom]
Encoded date                : UTC 2019-05-19 19:55:55
Writing application         : v34.0.0 ('Sight and Seen') 64-bit
Writing library             : libebml v1.3.7 + v1.5.0
Cover                       : Yes
Attachments                 : cover.jpg

Video
ID                          : 1
Format                      : AVC
Format/Info                 : Advanced Video Codec
Format profile              : [email protected]
Format settings             : CABAC / 8 Ref Frames
Format settings, CABAC      : Yes
Format settings, Reference  : 8 frames
Codec ID                    : V_MPEG4/ISO/AVC
Duration                    : 1 h 50 min
Bit rate                    : 3 210 kb/s
Width                       : 1 024 pixels
Height                      : 554 pixels
Display aspect ratio        : 1.85:1
Frame rate mode             : Constant
Frame rate                  : 25.000 FPS
Color space                 : YUV
Chroma subsampling          : 4:2:0
Bit depth                   : 8 bits
Scan type                   : Progressive
Bits/(Pixel*Frame)          : 0.226
Stream size                 : 2.46 GiB (83%)
Title                       : Години / The Hours (2002) AVC
Writing library             : core 115 r1995 c1e60b9
Encoding settings           : cabac=1 / ref=8 / deblock=1:-2:-2 / analyse=0x3:0x133 / me=umh / subme=10 / psy=1 / psy_rd=0.90:0.00 / mixed_ref=1 / me_range=48 / chroma_me=1 / trellis=2 / 8x8dct=1 / cqm=0 / deadzone=21,11 / fast_pskip=0 / chroma_qp_offset=-2 / threads=6 / sliced_threads=0 / nr=0 / decimate=1 / interlaced=0 / bluray_compat=0 / constrained_intra=0 / bframes=6 / b_pyramid=2 / b_adapt=2 / b_bias=0 / direct=3 / weightb=1 / open_gop=0 / weightp=2 / keyint=250 / keyint_min=23 / scenecut=40 / intra_refresh=0 / rc_lookahead=40 / rc=2pass / mbtree=1 / bitrate=3210 / ratetol=1.0 / qcomp=0.60 / qpmin=10 / qpmax=51 / qpstep=4 / cplxblur=20.0 / qblur=0.5 / ip_ratio=1.40 / aq=2:1.00
Language                    : English
Default                     : Yes
Forced                      : No

Audio #1
ID                          : 2
Format                      : AC-3
Format/Info                 : Audio Coding 3
Commercial name             : Dolby Digital
Codec ID                    : A_AC3
Duration                    : 1 h 49 min
Bit rate mode               : Constant
Bit rate                    : 192 kb/s
Channel(s)                  : 2 channels
Channel layout              : L R
Sampling rate               : 48.0 kHz
Frame rate                  : 31.250 FPS (1536 SPF)
Bit depth                   : 16 bits
Compression mode            : Lossy
Stream size                 : 151 MiB (5%)
Title                       : MVO [AMC] 2.0 [stereo] 192 Kbps [Hurtom]
Language                    : Ukrainian
Service kind                : Complete Main
Default                     : Yes
Forced                      : No

Audio #2
ID                          : 3
Format                      : AC-3
Format/Info                 : Audio Coding 3
Commercial name             : Dolby Digital
Codec ID                    : A_AC3
Duration                    : 1 h 50 min
Bit rate mode               : Constant
Bit rate                    : 448 kb/s
Channel(s)                  : 6 channels
Channel layout              : L R C LFE Ls Rs
Sampling rate               : 48.0 kHz
Frame rate                  : 31.250 FPS (1536 SPF)
Bit depth                   : 16 bits
Compression mode            : Lossy
Stream size                 : 353 MiB (12%)
Title                       : Original, 5.1 448 Kbps
Language                    : English
Service kind                : Complete Main
Default                     : No
Forced                      : No

Text
ID                          : 4
Format                      : UTF-8
Codec ID                    : S_TEXT/UTF8
Codec ID/Info               : UTF-8 Plain Text
Duration                    : 1 h 44 min
Bit rate                    : 47 b/s
Count of elements           : 1562
Stream size                 : 35.9 KiB (0%)
Language                    : English
Default                     : No
Forced                      : No

Menu
00:00:00.000                : :Chapter 01
00:07:37.519                : :Chapter 02
00:17:51.279                : :Chapter 03
00:28:29.518                : :Chapter 04
00:38:29.639                : :Chapter 05
00:47:30.719                : :Chapter 06
00:57:29.599                : :Chapter 07
01:07:55.880                : :Chapter 08
01:17:30.439                : :Chapter 09
01:28:10.760                : :Chapter 10
01:37:33.198                : :Chapter 11
01:45:36.119                : :Chapter 12
01:49:59.800                : :Chapter 13


Джерело: &
Подяка п.kryk-v.ya. за наданий запис та п.Ham_R за український постер.


Срібний реліз (на рейтинг впливає 50% завантаженого)
 Трекер:    Зареєстрований   

Завантажити / скачати фільм українською



відео для новачків



 Зареєстрований:   2019-05-19 23:07
 Розмір:   2.96 GB 
 Оцінка фільму:   10/10 (Голосів: 8)
 ЗАЛИШАЙТЕСЬ ЯКОМОГА ДОВШЕ НА РОЗДАЧІ! ЗАВАНТАЖИВ САМ - ДАЙ ЗАВАНТАЖИТИ ІНШИМ!
   
Інші релізи
   Години / The Hours (2002) igor911  9 / 0   1.63 GB   2019-05-19 23:28 
   Години / The Hours (2002) 720p Ukr/Eng | Sub Eng igor911  3 / 0   5.56 GB   2019-05-19 22:29 
   Години / The Hours (2002) Remux 1080p Ukr/Eng | Sub Eng kryk-v.ya.  2 / 0   15.46 GB   2019-05-18 19:48 
Ваш часовий пояс: GMT + 2 Години

Нова тема   Відповісти