Командос [Режисерська версія] / Commando [Director's Cut] (1985) Remux 1080p Ukr/Eng | Sub Eng

Нові коментарі

Нова тема   Відповісти
Автор Повідомлення
MakRA 
VIP


З нами з: 11.11.18
Востаннє: 24.09.20
Повідомлень: 1120

2019-05-19 20:04  
Командос [Режисерська версія] / Commando [Director's Cut] (1985) Remux 1080p Ukr/Eng | Sub Eng

Командос [Режисерська версія] / Commando [Director's Cut] (1985) Remux 1080p Ukr/Eng | Sub Eng

Українські постери:



Альтернативні обкладинки і постери:






Жанр: екшн, пригодницький, бойовик
Країна: США



Кінокомпанія: SLM Production Group, Silver Pictures, Twentieth Century Fox
Режисер: Марк Л. Лестер [Mark L. Lester]
Актори: Арнольд Шварценеґґер [Arnold Schwarzenegger], Рей Дон Чонг [Rae Dawn Chong], Ден Хедайя [Dan Hedaya], Вернон Веллс [Vernon Wells], Джеймс Олсон [James Olson], Девід Патрік Келлі [David Patrick Kelly], Алісса Мілано [Alyssa Milano], Білл Дюк [Bill Duke], Дрю Снайдер [Drew Snyder], Шерон Вайатт [Sharon Wyatt], Майкл Делано [], Боб Майнор [Michael DeLano].

Сюжет:
Культовий бойовик 80-х про колишнього командира елітного спецпідрозділу, якого не лишає в спокої минуле та змушує самотужки шукати справедливості.

Головний герой - колишній спецпризначенець, що брав участь в секретних операціях на Близькому Сході, СРСР і Центральній Америці, полковник у відставці Джон Метрікс. Відійшовши від справ, Джон шукав спокійного життя, подалі від людей, разом з коханою донькою Дженні.

Несподівано невідомі починають вбивати колишніх підлеглих Метрікса. Спроба уряду попередити Джона викриває його місцезнаходження. Зловмисники викрадають доньку ветерана та вимагають від Метрікса виконати замовне вбивство. Він береться за зброю. Вбивств буде багато…

Цікаве про фільм:

-Пісня, яка лунає в кінцівці це We Fight for Love (іноді згадується ще як Somewhere, Somehow, Someone's Gotta Pay) групи Power Station.
-Спочатку передбачалося, що фільм зніматиме режисер Джон Мактірнен, але він відмовився. А через два роки, в 1987, він погодився зняти фільм «Хижак» також зі Шварценеґером у головній ролі.
-Просторий супермаркет Sherman Oaks Galleria, в якому як Тарзан літав герой Шварценеґера, потім буде знято і в іншому його фільмі - в «Термінаторі 2».
-Актор Вернон Веллс (Беннет) і сам спочатку пробувався на роль полковника Матрікса.
-Будинок, в якому відбувається фінальна перестрілка між Матріксом і Аріусом - це той самий будинок, в якому знімалася фінальна перестрілка між Фолі і Мейтландом у фільмі «Поліцейський із Беверлі-Гіллз».
-В якості оператора радара знявся відомий у майбутньому актор Біл Пакстон.
-До фільму планувалось продовження, але так і не було втілено у життя через незацікавленість Шварценеґера. Сценарій продовження, що не відбувся був переписаний і перетворився у фільм «Міцний горішок», знятий 1988 року і подарував світу нового супергероя (Брюса Віліса).
-З режисерської версії картини стає відомо, що мати Джені померла під час пологів.
-Арнольд погодився виконати головну роль, за його словами це був перший сценарій з часів успіху «Термінатора» де йому не пропонували знову стати роботом.
-Арнольд прагнув самостійно виконувати всі трюки, не використовуючи дублера, навіть у відомій сцені, де на швидкості 65 миль на годину доводилося висіти, тримаючись за шасі літака. Ціна? Вибите плече і кілька швів на руці і лікті.
-Вернон Велс поза знімальним майданчиком був дуже приємним хлопцем, тим більше дивним виглядало його перевтілення в нелюда Бенета. Одного разу, після зйомок сцени бійки на ножах, Лестер сказав наступне: 'Знято. І не підпускайте до мене Бенета'.
-За словами Велса, костюмери знайшли йому одяг на кілька розмірів менше, щоб він виглядав ще більш бридко. Сам Вернон жартівливо називає Беннета «Фредді Меркьюрі на стероїдах».
-Чемпіоном серед живих мерців можна вважати безіменного бороданя: цього дядька Арні за п'ятнадцять хвилин фільму уколошкав аж чотири рази.
-Залізний Арні підтверджує своє прізвисько, падаючи з літака в болотисті зарості з висоти в кілька десятків метрів.
-За час фільму Арні встигає поміняти годинник з електронного на механічний зі стрілками, а в сцені прибуття на острів у човні, за секунду, змінює труси з сірих на чорні.
-Бюджет - $10,000,000.


Тривалість: 01:31:51
Якість: Remux 1080p
Відео:
кодек:
розмір кадру: 1920 х 1080
бітрейт: 24,9 Мбіт/с

Аудіо # 1: (на доданих сценах оригінальна озвучка)
мова: українська
переклад: двоголосий закадровий
кодек: 5.1
бітрейт: 448 кб/с
Про озвучення:
Ролі озвучили:Володимир Нечепоренко і Тетяна Антонова.
Аудіо # 2: (на доданих сценах українська одноголоска)
мова: українська
переклад: двоголосий закадровий
кодек: 5.1
бітрейт: 448 кб/с
Про озвучення:
Ролі озвучили:Володимир Нечепоренко і Тетяна Антонова.
Аудіо # 3:
мова: англійська
переклад: оригінал
кодек: -HD MA 5.1
бітрейт: 3 840 кб/с

Аудіо # 4:
мова: англійська
переклад: оригінал
кодек: 5.1
бітрейт: 448 кб/с

Аудіо # 5:
мова: англійська
переклад: оригінал | Коментарі режисера Марк Л. Лестера
кодек: 2.0
бітрейт: 224 кб/с

Субтитри # 1 : (Forced) (до моментів без перекладу)
мова: українська
тип: програмні (м'які)
формат: *.srt

Субтитри # 2-3 : (Full / SDH)
мова: англійська
тип: пререндерні
формат: *.pgs
Info
General
Unique ID : 124281525069334180005948554564057916005 (0x5D7FC045E5244FF22207838E54336265)
Complete name : E:\+Фільмографії-Арнольд Шварценеггер\Commando [Director's Cut] (1985) Remux 1080p UkrEng Sub Eng [Hurtom].
Format :
Format version : Version 4 / Version 2
File size : 19.4 GiB
Duration : 1 h 31 min
Overall bit rate mode : Variable
Overall bit rate : 30.3 Mb/s
Movie name : Командос [Режисерська версія] / Commando [Director's Cut] (1985) Remux 1080p Ukr/Eng | Sub Eng [Hurtom]
Encoded date : UTC 2019-05-17 22:35:49
Writing application : v25.0.0 ('Prog Noir') 64-bit
Writing library : libebml v1.3.6 + v1.4.9

Video
ID : 1
Format : AVC
Format/Info : Advanced Video Codec
Format profile : [email protected]
Format settings, CABAC : Yes
Format settings, RefFrames : 4 frames
Format settings, GOP : M=3, N=12
Codec ID : V_MPEG4/ISO/AVC
Duration : 1 h 31 min
Bit rate mode : Variable
Bit rate : 24.9 Mb/s
Maximum bit rate : 25.5 Mb/s
Width : 1 920 pixels
Height : 1 080 pixels
Display aspect ratio : 16:9
Frame rate mode : Constant
Frame rate : 23.976 (24000/1001) FPS
Color space : YUV
Chroma subsampling : 4:2:0
Bit depth : 8 bits
Scan type : Progressive
Bits/(Pixel*Frame) : 0.500
Stream size : 15.9 GiB (82%)
Title : Commando [Director's Cut] (1985) Remux 1080p Ukr/Eng | Sub Eng [Hurtom]
Default : Yes
Forced : No

Audio #1
ID : 2
Format : AC-3
Format/Info : Audio Coding 3
Format settings, Endianness : Big
Codec ID : A_AC3
Duration : 1 h 31 min
Bit rate mode : Constant
Bit rate : 448 kb/s
Channel(s) : 6 channels
Channel positions : Front: L C R, Side: L R, LFE
Sampling rate : 48.0 kHz
Frame rate : 31.250 FPS (1536 SPF)
Bit depth : 16 bits
Compression mode : Lossy
Delay relative to video : 24 ms
Stream size : 294 MiB (1%)
Title : DVO [2+2] [ICTV]+Eng на доданих сценах
Language : Ukrainian
Service kind : Complete Main
Default : Yes
Forced : Yes

Audio #2
ID : 3
Format : AC-3
Format/Info : Audio Coding 3
Format settings, Endianness : Big
Codec ID : A_AC3
Duration : 1 h 31 min
Bit rate mode : Constant
Bit rate : 448 kb/s
Channel(s) : 6 channels
Channel positions : Front: L C R, Side: L R, LFE
Sampling rate : 48.0 kHz
Frame rate : 31.250 FPS (1536 SPF)
Bit depth : 16 bits
Compression mode : Lossy
Delay relative to video : 24 ms
Stream size : 294 MiB (1%)
Title : DVO [2+2] [ICTV]+OneVoice на доданих сценах
Language : Ukrainian
Service kind : Complete Main
Default : No
Forced : No

Audio #3
ID : 4
Format :
Format/Info : Digital Theater Systems
Format profile : MA / Core
Mode : 16
Format settings, Endianness : Big
Codec ID : A_DTS
Duration : 1 h 31 min
Bit rate mode : Variable / Constant
Bit rate : 3 840 kb/s / 1 509 kb/s
Channel(s) : 6 channels
Channel positions : Front: L C R, Side: L R, LFE
Sampling rate : 48.0 kHz
Frame rate : 93.750 FPS (512 SPF)
Bit depth : 24 bits
Compression mode : Lossless / Lossy
Stream size : 2.48 GiB (13%)
Title : Original -HD MA 5.1
Language : English
Default : No
Forced : No

Audio #4
ID : 5
Format : AC-3
Format/Info : Audio Coding 3
Format settings, Endianness : Big
Codec ID : A_AC3
Duration : 1 h 31 min
Bit rate mode : Constant
Bit rate : 448 kb/s
Channel(s) : 6 channels
Channel positions : Front: L C R, Side: L R, LFE
Sampling rate : 48.0 kHz
Frame rate : 31.250 FPS (1536 SPF)
Bit depth : 16 bits
Compression mode : Lossy
Stream size : 294 MiB (1%)
Title : Original 5.1
Language : English
Service kind : Complete Main
Default : No
Forced : No

Audio #5
ID : 6
Format : AC-3
Format/Info : Audio Coding 3
Format settings, Endianness : Big
Codec ID : A_AC3
Duration : 1 h 31 min
Bit rate mode : Constant
Bit rate : 224 kb/s
Channel(s) : 2 channels
Channel positions : Front: L R
Sampling rate : 48.0 kHz
Frame rate : 31.250 FPS (1536 SPF)
Bit depth : 16 bits
Compression mode : Lossy
Stream size : 147 MiB (1%)
Title : Original | Commentary by Director Mark L. Lester
Language : English
Service kind : Complete Main
Default : No
Forced : No

Text #1
ID : 7
Format : UTF-8
Codec ID : S_TEXT/UTF8
Codec ID/Info : UTF-8 Plain Text
Duration : 13 min 24 s
Bit rate : 13 b/s
Count of elements : 25
Stream size : 1.36 KiB (0%)
Title : Ukr (Forced) | до моментів без перекладу
Language : Ukrainian
Default : Yes
Forced : Yes

Text #2
ID : 8
Format : PGS
Muxing mode : zlib
Codec ID : S_HDMV/PGS
Codec ID/Info : Picture based subtitle format used on BDs/HD-DVDs
Duration : 1 h 29 min
Bit rate : 47.2 kb/s
Count of elements : 2068
Stream size : 30.2 MiB (0%)
Title : Eng (Full)
Language : English
Default : No
Forced : No

Text #3
ID : 9
Format : PGS
Muxing mode : zlib
Codec ID : S_HDMV/PGS
Codec ID/Info : Picture based subtitle format used on BDs/HD-DVDs
Duration : 1 h 30 min
Bit rate : 20.1 kb/s
Count of elements : 1294
Stream size : 13.1 MiB (0%)
Title : Eng (SDH)
Language : English
Default : No
Forced : No
Скріншоти
Джерело: &
Особиста оцінка: 10 - без зайвих вагань рекомендую всім!
Дякую п. Romario_O за запис і синхронізацію, п. d1mma за українізовані постери


Золотий реліз (завантажене не впливає на рейтинг)
 Трекер:    Зареєстрований   

Завантажити / скачати фільм українською



відео для новачків



 Зареєстрований:   2019-05-19 20:04
 Розмір:   19.44 GB 
 Оцінка фільму:   9.4/10 (Голосів: 21)
   
Інші релізи
   Командос / Commando (1985) 1080p Ukr/Eng | Sub Ukr/Eng boroznaya  2 / 0   12.3 GB   2018-07-01 13:39 
   Командос / Commando (1985) Ukr/Eng Arsenfpu  2 / 0   1.41 GB   2016-11-22 23:19 
   Коммандо / Commando (1985) sokeel  1 / 0   743 MB   2016-10-20 17:19 
   Коммандо / Commando (1985) [MP4, 640x] apvAltisimo  0 / 0   581 MB   2015-08-12 12:52 
   Командос / Commando (1985) 720p Ukr/Eng | Sub Ukr/Eng Hurtomivets'  1 / 0   6.91 GB   2011-11-09 19:44 
   Коммандо / Commando (1985) Ukr/Eng | Sub Ukr/Eng Romario_O  0 / 0   1.73 GB   2009-09-30 20:26 
11FrYkT 
Модератор відео


З нами з: 20.02.11
Востаннє: 23.09.20
Повідомлень: 7004

2019-05-20 12:52  
MakRA написано:

Субтитри # 2 : (Full)
мова: англійська
тип: програмні (м'які)
формат: *.srt

перендерні, pgs

Soncezahyst 
Частий відвідувач


З нами з: 12.05.19
Востаннє: 23.09.20
Повідомлень: 46

2019-06-05 17:33  
На жаль це не 60 fps
Skovorodkin1985 
Новенький


З нами з: 09.01.15
Востаннє: 14.09.20
Повідомлень: 20

2020-08-24 22:35  
Режисерська версія шедевру з дитинства - це цікаво. Дякую за роздачу та високу якість.
Ваш часовий пояс: GMT + 2 Години

Нова тема   Відповісти