Хоробре серце. Змова в королівстві / Ritter Rost 2: Das Schrottkomplott (2017) Remux 1080p Ukr/Ger | Sub Ger

Нові коментарі

Нова тема   Відповісти
Останній раз роздавалося ВАВУНЯ (2021-02-06)
Автор Повідомлення
sergiyko.5 
Забанено
Забанено


З нами з: 25.02.16
Востаннє: 29.10.20
Повідомлень: 3648

2019-05-19 14:44  
Хоробре серце. Змова в королівстві / Ritter Rost 2: Das Schrottkomplott (2017) Remux 1080p Ukr/Ger | Sub Ger

Хоробре серце. Змова в королівстві / Ritter Rost 2: Das Schrottkomplott (2017) Remux 1080p Ukr/Ger | Sub Ger

Жанр: комедія, мультфільм, пригоди, фентезі
Країна: Німеччина



Режисер: Томас Боденштайн
Сценарист: Габріела Вальтер
Продюсер: Габріела Вальтер
Актори: Том Герхардт, Йєлла Хаазе, Крістоф Марія Хербст, Детлеф Редінгер, Дастін Земмельрогге ...

Сюжет:
Порожня казна королівства Металломії змушує короля розпустити армію, а тим часом глава поліції захоплює трон. Не бажаючи бачити, як руйнується королівство під царюванням нового короля, Рості та його друзі вирішують врятувати рідну Металломію.


Цікаві факти:
- У мультфільмі "Хоробре серце. Змова в королівстві" можна побачити відсилання до фільму Джеймса Кемерона "Титанік" і Джона Стерджеса "Прекрасна сімка".

Прем'єра в Україні: 01.11.2018
Світова прем'єра: 19.01.2017


Тривалість: 01:27:13
Якість: Remux

Відео: кодек: розмір кадру: 1920 х 1080 бітрейт: 19900 кб/с
Аудіо 1: мова: українська переклад: професійний дубльований кодек: 2.0 бітрейт: 192 кб/с / Студія AAA-Sound /
Аудіо 2: мова: німецька переклад: оригінал кодек: -HD Master Audio 5.1 бітрейт: 4272 кб/с
Субтитри #1: (Full) мова: німецька тип: пререндерні формат: *.pgs
Субтитри #2: (SDH) мова: німецька тип: пререндерні формат: *.pgs
Про файл:
General
Unique ID : 47996433820709560379918228826444773882 (0x241BC6E3B2EF637D141FF254C2CFB9FA)
Complete name : G:\Torrents2\MULT\Ritter Rost 2. Das Schrottkomplott.2017.BD Remux.1080p.Ukr.Ger.
Format :
Format version : Version 4
File size : 14.9 GiB
Duration : 1 h 27 min
Overall bit rate mode : Variable
Overall bit rate : 24.4 Mb/s
Movie name : Ritter Rost 2. Das Schrottkomplott 2017 1080p Blu-ray Remux
Encoded date : UTC 2019-05-19 12:17:26
Writing application : v33.1.0 ('Primrose') 64-bit
Writing library : libebml v1.3.7 + v1.5.0
Cover : Yes
Attachments : cover.jpg

Video
ID : 1
Format : AVC
Format/Info : Advanced Video Codec
Format profile : [email protected]
Format settings : CABAC / 4 Ref Frames
Format settings, CABAC : Yes
Format settings, Reference : 4 frames
Codec ID : V_MPEG4/ISO/AVC
Duration : 1 h 27 min
Bit rate mode : Variable
Bit rate : 19.9 Mb/s
Maximum bit rate : 32.0 Mb/s
Width : 1 920 pixels
Height : 1 080 pixels
Display aspect ratio : 16:9
Frame rate mode : Constant
Frame rate : 23.976 (24000/1001) FPS
Color space : YUV
Chroma subsampling : 4:2:0
Bit depth : 8 bits
Scan type : Progressive
Bits/(Pixel*Frame) : 0.400
Stream size : 12.1 GiB (82%)
Title : Ritter Rost 2. Das Schrottkomplott 2017
Language : German
Default : Yes
Forced : No

Audio #1
ID : 2
Format : AC-3
Format/Info : Audio Coding 3
Commercial name : Dolby Digital
Codec ID : A_AC3
Duration : 1 h 27 min
Bit rate mode : Constant
Bit rate : 192 kb/s
Channel(s) : 2 channels
Channel layout : L R
Sampling rate : 48.0 kHz
Frame rate : 31.250 FPS (1536 SPF)
Bit depth : 16 bits
Compression mode : Lossy
Stream size : 120 MiB (1%)
Title : DUB 2ch | Студія AAA-Sound
Language : Ukrainian
Service kind : Complete Main
Default : Yes
Forced : Yes

Audio #2
ID : 3
Format : XLL
Format/Info : Digital Theater Systems
Commercial name : -HD Master Audio
Codec ID : A_DTS
Duration : 1 h 27 min
Bit rate mode : Variable
Bit rate : 4 272 kb/s
Channel(s) : 6 channels
Channel layout : C L R Ls Rs LFE
Sampling rate : 48.0 kHz
Frame rate : 93.750 FPS (512 SPF)
Bit depth : 24 bits
Compression mode : Lossless
Stream size : 2.60 GiB (18%)
Title : Original
Language : German
Default : No
Forced : No

Text #1
ID : 4
Format : PGS
Muxing mode : zlib
Codec ID : S_HDMV/PGS
Codec ID/Info : Picture based subtitle format used on BDs/HD-DVDs
Duration : 1 h 21 min
Bit rate : 39.9 kb/s
Count of elements : 2494
Stream size : 23.3 MiB (0%)
Language : German
Default : No
Forced : No

Text #2
ID : 5
Format : PGS
Muxing mode : zlib
Codec ID : S_HDMV/PGS
Codec ID/Info : Picture based subtitle format used on BDs/HD-DVDs
Duration : 1 h 22 min
Bit rate : 45.8 kb/s
Count of elements : 3140
Stream size : 27.1 MiB (0%)
Title : SDH
Language : German
Default : No
Forced : No

Menu
00:00:00.000 : en:00:00:00.000
00:09:14.262 : en:00:09:14.262
00:18:44.665 : en:00:18:44.665
00:30:38.420 : en:00:30:38.420
00:39:49.012 : en:00:39:49.012
00:49:44.356 : en:00:49:44.356
00:59:44.456 : en:00:59:44.456
01:11:31.078 : en:01:11:31.078
01:22:55.095 : en:01:22:55.095
Скріншоти:





Золотий реліз (завантажене не впливає на рейтинг)
 Трекер:    Зареєстрований   

Завантажити / скачати мультфільм українською



відео для новачків



 Зареєстрований:   2019-05-19 14:44
 Розмір:   14.87 GB 
 Оцінка мультфільму:   10/10 (Голосів: 2)
   
igor911 
Модератор відео


З нами з: 18.01.08
Востаннє: 08.03.21
Повідомлень: 15636

2019-05-19 16:32  
sergiyko.5 написано:
тип: програмні (м'які) формат: *.pgs

тип треба виправити на "пререндерні"

Ваш часовий пояс: GMT + 2 Години

Нова тема   Відповісти