Мексиканець / The Mexican (2001) 1080р H.265 2хUkr/Eng | Sub Eng

Нові коментарі

Нова тема   Відповісти
Останній раз роздавалося ivic4u (2020-05-15)
Автор Повідомлення
Anonymous 







2019-05-19 14:43  
Мексиканець / The Mexican (2001) 1080р H.265 2хUkr/Eng | Sub Eng

Мексиканець / The Mexican (2001) 1080р H.265 2хUkr/Eng | Sub Eng


Жанр: пригодницький, комедія, кримінальний
Країна: США, Мексика
Кінокомпанія: DreamWorks SKG, Newmarket Capital Group, Lawrence Bender Productions
Режисер: Гор Вербінскі
Актори: Бред Пітт, Джулія Робертс, Джеймс Ґендольфіні, Боб Балабан, Шерман Ауґустус, Джин Гекмен, Майкл Керверіс

Сюжет:
"Мексиканець" - саме таку назву носить антикварний пістолет з поганою долею. Саме за ним і відправляється до Мексики дрібний гангстер Джеррі Велбах.

Тривалість: 02:03:29
Якість:
Відео:
кодек: H.265 (HEVC)
розмір кадру: 1920 x 830
бітрейт: 9 242 кб/с
бітова глибина: 10 біт
Увага! Перед завантаженням переконайтесь, що ваш пристрій відтворення (та/або ПЗ) підтримує H.265 (HEVC)

Аудіо # 1:
мова: українська
переклад: двоголосий закадровий
кодек: AC-3 2.0
бітрейт: 192 кб/с

Аудіо # 2:
мова: українська
переклад: багатоголосий закадровий
кодек: AC-3 2.0
бітрейт: 192 кб/с

Аудіо # 3:
мова: англійська
переклад: оригінал
кодек: 5.1
бітрейт: 755 кб/с

Субтитри # 1:
мова: англійська (Full),
тип: програмні (м'які)
формат: *.srt


Info
Код:
General
Unique ID                                : 236127116008589680206556838294890815422 (0xB1A46DA7B54D09F36A32FF2054C51FBE)
Complete name                            : F:\Video\The Mexican (2001) 1080p H.265 [2xUKR_ENG] [Hurtom].
Format                                   :
Format version                           : Version 4 / Version 2
File size                                : 8.96 GiB
Duration                                 : 2 h 3 min
Overall bit rate                         : 10.4 Mb/s
Movie name                               : Мексиканець / The Mexican (2001)
Encoded date                             : UTC 2019-05-13 20:02:25
Writing application                      : v20.0.0 ('I Am The Sun') 64-bit
Writing library                          : libebml v1.3.5 + v1.4.8
Cover                                    : Yes
Attachments                              : Cover.jpg

Video
ID                                       : 1
Format                                   : HEVC
Format/Info                              : High Efficiency Video Coding
Format profile                           : Main [email protected]@High
Codec ID                                 : V_MPEGH/ISO/HEVC
Duration                                 : 2 h 3 min
Bit rate                                 : 9 241 kb/s
Width                                    : 1 920 pixels
Height                                   : 830 pixels
Display aspect ratio                     : 2.35:1
Frame rate mode                          : Constant
Frame rate                               : 23.976 (24000/1001) FPS
Color space                              : YUV
Chroma subsampling                       : 4:2:0
Bit depth                                : 10 bits
Bits/(Pixel*Frame)                       : 0.242
Stream size                              : 7.97 GiB (89%)
Title                                    : Мексиканець / The Mexican (2001)
Writing library                          : x265 2.8+66-88ee12651e30:[Windows][MSVC 1900][64 bit] 10bit
Encoding settings                        : cpuid=1111039 / frame-threads=4 / numa-pools=16 / wpp / no-pmode / no-pme / no-psnr / no-ssim / log-level=2 / input-csp=1 / input-res=1920x830 / interlace=0 / total-frames=177643 / level-idc=41 / high-tier=1 / uhd-bd=0 / ref=5 / no-allow-non-conformance / no-repeat-headers / annexb / no-aud / no-hrd / info / hash=0 / no-temporal-layers / open-gop / min-keyint=23 / keyint=240 / gop-lookahead=0 / bframes=10 / b-adapt=2 / b-pyramid / bframe-bias=0 / rc-lookahead=60 / lookahead-slices=0 / scenecut=40 / radl=0 / no-intra-refresh / ctu=32 / min-cu-size=8 / rect / amp / max-tu-size=32 / tu-inter-depth=4 / tu-intra-depth=4 / limit-tu=1 / rdoq-level=1 / dynamic-rd=0.00 / no-ssim-rd / signhide / tskip / nr-intra=0 / nr-inter=0 / no-constrained-intra / no-strong-intra-smoothing / max-merge=5 / limit-refs=1 / limit-modes / me=3 / subme=7 / merange=57 / temporal-mvp / weightp / weightb / no-analyze-src-pics / deblock=-3:-3 / no-sao / no-sao-non-deblock / rd=6 / no-early-skip / no-rskip / no-fast-intra / no-tskip-fast / no-cu-lossless / b-intra / no-splitrd-skip / rdpenalty=0 / psy-rd=1.00 / psy-rdoq=1.00 / no-rd-refine / no-lossless / cbqpoffs=-2 / crqpoffs=-2 / rc=crf / crf=18.0 / qcomp=0.70 / qpstep=4 / stats-write=0 / stats-read=0 / vbv-maxrate=50000 / vbv-bufsize=50000 / vbv-init=0.9 / crf-max=0.0 / crf-min=0.0 / ipratio=1.40 / pbratio=1.30 / aq-mode=1 / aq-strength=0.70 / no-cutree / zone-count=1 / zones: / start-frame=169282 / end-frame=177643 / qp=36 / no-strict-cbr / qg-size=32 / no-rc-grain / qpmax=69 / qpmin=0 / no-const-vbv / sar=1 / overscan=0 / videoformat=5 / range=0 / colorprim=1 / transfer=1 / colormatrix=1 / chromaloc=0 / display-window=0 / max-cll=0,0 / min-luma=0 / max-luma=1023 / log2-max-poc-lsb=8 / vui-timing-info / vui-hrd-info / slices=1 / no-opt-qp-pps / no-opt-ref-list-length-pps / no-multi-pass-opt-rps / scenecut-bias=0.05 / no-opt-cu-delta-qp / no-aq-motion / no-hdr / no-hdr-opt / no-dhdr10-opt / no-idr-recovery-sei / analysis-reuse-level=5 / scale-factor=0 / refine-intra=0 / refine-inter=0 / refine-mv=0 / no-limit-sao / ctu-info=0 / no-lowpass-dct / refine-mv-type=0 / copy-pic=1 / max-ausize-factor=1.0 / no-dynamic-refine / no-single-sei
Default                                  : Yes
Forced                                   : No
Color range                              : Limited
Color primaries                          : BT.709
Transfer characteristics                 : BT.709
Matrix coefficients                      : BT.709

Audio #1
ID                                       : 2
Format                                   : AC-3
Format/Info                              : Audio Coding 3
Codec ID                                 : A_AC3
Duration                                 : 2 h 3 min
Bit rate mode                            : Constant
Bit rate                                 : 192 kb/s
Channel(s)                               : 2 channels
Channel positions                        : Front: L R
Sampling rate                            : 48.0 kHz
Frame rate                               : 31.250 FPS (1536 SPF)
Bit depth                                : 16 bits
Compression mode                         : Lossy
Delay relative to video                  : 1 s 500 ms
Stream size                              : 170 MiB (2%)
Title                                    : ДЗ - Novy Kanal - АС3 2.0 192 кб/с
Language                                 : Ukrainian
Service kind                             : Complete Main
Default                                  : Yes
Forced                                   : Yes

Audio #2
ID                                       : 3
Format                                   : AC-3
Format/Info                              : Audio Coding 3
Codec ID                                 : A_AC3
Duration                                 : 2 h 3 min
Bit rate mode                            : Constant
Bit rate                                 : 192 kb/s
Channel(s)                               : 2 channels
Channel positions                        : Front: L R
Sampling rate                            : 48.0 kHz
Frame rate                               : 31.250 FPS (1536 SPF)
Bit depth                                : 16 bits
Compression mode                         : Lossy
Delay relative to video                  : 1 s 500 ms
Stream size                              : 170 MiB (2%)
Title                                    : БЗ - Inter - АС3 2.0 192 кб/с
Language                                 : Ukrainian
Service kind                             : Complete Main
Default                                  : No
Forced                                   : No

Audio #3
ID                                       : 4
Format                                   :
Format/Info                              : Digital Theater Systems
Codec ID                                 : A_DTS
Duration                                 : 2 h 3 min
Bit rate mode                            : Constant
Bit rate                                 : 755 kb/s
Channel(s)                               : 6 channels
Channel positions                        : Front: L C R, Side: L R, LFE
Sampling rate                            : 48.0 kHz
Frame rate                               : 93.750 FPS (512 SPF)
Bit depth                                : 16 bits
Compression mode                         : Lossy
Delay relative to video                  : 7 s 280 ms
Stream size                              : 666 MiB (7%)
Title                                    : Original - 5.1 1536 Kbps
Language                                 : English
Default                                  : No
Forced                                   : No

Text
ID                                       : 5
Format                                   : UTF-8
Codec ID                                 : S_TEXT/UTF8
Codec ID/Info                            : UTF-8 Plain Text
Duration                                 : 2 h 2 min
Bit rate                                 : 52 b/s
Count of elements                        : 1343
Stream size                              : 47.3 KiB (0%)
Title                                    : Full
Language                                 : English
Default                                  : No
Forced                                   : No

Menu
00:00:00.000                             : en:The Mexican
00:13:28.265                             : en:Via Con Dios
00:23:58.019                             : en:El Camino
00:33:51.738                             : en:Señor Beck
00:40:45.025                             : en:The Legend of the Pistola
00:48:35.203                             : en:These Boots
00:54:51.288                             : en:Sam and Leroy
01:00:31.919                             : en:Jerry and the Dog
01:05:15.202                             : en:Trust Issues
01:10:31.310                             : en:It's The American Way
01:16:25.747                             : en:A Moment
01:21:09.865                             : en:The Legend Part Dos
01:25:17.487                             : en:Three's A Crowd
01:37:20.667                             : en:Safety Dance
01:45:14.016                             : en:She's In Vegas
01:57:40.636                             : en:Why Can't We Be Friends
02:03:29.193                             : en:Yu're My Guy
Світлини





Джерело: &
Особиста оцінка: 0 - не дивився


Срібний реліз (на рейтинг впливає 50% завантаженого)
 Трекер:    Зареєстрований   

Завантажити / скачати фільм українською



відео для новачків



 Зареєстрований:   2019-05-19 14:43
 Розмір:   8.96 GB 
 Оцінка фільму:   9.9/10 (Голосів: 7)
   
Інші релізи
   Мексиканець / The Mexican (2001) 1080р 2хUkr/Eng | Sub Eng staf777  1 / 0   13.35 GB   2020-01-13 20:05 
   Мексиканець / The Mexican (2001) AVC 2хUkr/Eng | Sub Eng Gingеrbread  4 / 0   3.48 GB   2020-01-09 23:20 
   Мексиканець / The Mexican (2001) 720р 2хUkr/Eng kino.  3 / 0   6.49 GB   2013-11-23 18:20 
   Мексиканець / The Mexican (2001) 2хUkr/Eng Gelios  4 / 0   2.46 GB   2012-05-22 14:15 
   Мексиканець / The Mexican (2001) Ukr/Eng Soyer  3 / 0   1.48 GB   2008-07-09 21:12 
Ваш часовий пояс: GMT + 2 Години

Нова тема   Відповісти