Скло / Glass (2019) 1080p H.265 Ukr/Eng | Sub Eng

Нові коментарі

Нова тема   Відповісти
Автор Повідомлення
Anonymous 







2019-05-19 14:32  
Скло / Glass (2019) 1080p H.265 Ukr/Eng | Sub Eng

Скло / Glass (2019) 1080p H.265 Ukr/Eng | Sub Eng


Жанр: детектив, драма, трилер, фантастика
Країна: США
Кінокомпанія: Universal Pictures, Blumhouse Productions
Режисер: М. Найт Шьямалан
Актори: Джеймс МакЕвой, Брюс Вілліс, Семюел Л. Джексон, Аня Тейлор-Джой, Сара Полсон, Спенсер Тріт Кларк, Чарлейн Вудард, Люк Кірбі, М. Найт Ш'ямалан

Сюжет:
Дві протилежності Елайджа Прайс на прізвисько Містер Скло, чиї кістки можуть зламатися від найменшого на них впливу, і невразливий, але злегка постарілий супергерой Девід Данн виявилися разом в одній психіатричній лікарні. Те, що вони вважають своєю перевагою, для суспільства є вадами. У тій же психушці опинився ще один хлопець, у якого є безліч особистостей – його звуть Кевін, а іноді просто Спліт. Містер Скло зумів переконати хлопця встати на свою сторону, щоб разом бігти з цього місця. Елайджа знає, що одна з особистостей Спліта – це жахливий і неконтрольований Звір, рівних якому складно знайти. Девід Данн зобов'язаний їх зупинити. Якщо випустити Звіра на свободу, нічого доброго не буде.

Тривалість: 02:09:01
Якість:
Відео:
кодек: H.265 (HEVC)
розмір кадру: 1920 x 800
бітрейт: 6 971 кб/с
бітова глибина: 10 біт
Увага! Перед завантаженням переконайтесь, що ваш пристрій відтворення (та/або ПЗ) підтримує H.265 (HEVC)

Аудіо # 1:
мова: українська
переклад: професійний дубльований
кодек: AC-3 5.1
бітрейт: 448 кб/с

Аудіо # 2:
мова: англійська
переклад: оригінал
кодек: 5.1
бітрейт: 1510 кб/с

Субтитри # 1:
мова: українська (Forced),
тип: програмні (м'які)
формат: *.srt

Субтитри # 2:
мова: англійська (Full),
тип: програмні (м'які)
формат: *.srt

Субтитри # 3:
мова: англійська (SDH),
тип: програмні (м'які)
формат: *.srt


Info
Код:
General
Unique ID                                : 148614610869277835529116297654190423999 (0x6FCE220759BB15AE5F66C502F4BF3FBF)
Complete name                            : F:\Video\Glass (2019) 1080p H.265 [UKR_ENG] [Hurtom].
Format                                   :
Format version                           : Version 4 / Version 2
File size                                : 8.05 GiB
Duration                                 : 2 h 9 min
Overall bit rate                         : 8 931 kb/s
Movie name                               : Скло / Glass (2019)
Encoded date                             : UTC 2019-05-19 09:32:05
Writing application                      : v20.0.0 ('I Am The Sun') 64-bit
Writing library                          : libebml v1.3.5 + v1.4.8
Cover                                    : Yes
Attachments                              : Cover.jpg

Video
ID                                       : 1
Format                                   : HEVC
Format/Info                              : High Efficiency Video Coding
Format profile                           : Main [email protected]@High
Codec ID                                 : V_MPEGH/ISO/HEVC
Duration                                 : 2 h 9 min
Bit rate                                 : 6 971 kb/s
Width                                    : 1 920 pixels
Height                                   : 800 pixels
Display aspect ratio                     : 2.40:1
Frame rate mode                          : Constant
Frame rate                               : 23.976 (24000/1001) FPS
Color space                              : YUV
Chroma subsampling                       : 4:2:0
Bit depth                                : 10 bits
Bits/(Pixel*Frame)                       : 0.189
Stream size                              : 6.28 GiB (78%)
Title                                    : Скло / Glass (2019)
Language                                 : English
Default                                  : Yes
Forced                                   : No
Color range                              : Limited
Color primaries                          : BT.709
Transfer characteristics                 : BT.709
Matrix coefficients                      : BT.709

Audio #1
ID                                       : 2
Format                                   : AC-3
Format/Info                              : Audio Coding 3
Codec ID                                 : A_AC3
Duration                                 : 2 h 9 min
Bit rate mode                            : Constant
Bit rate                                 : 448 kb/s
Channel(s)                               : 6 channels
Channel positions                        : Front: L C R, Side: L R, LFE
Sampling rate                            : 48.0 kHz
Frame rate                               : 31.250 FPS (1536 SPF)
Bit depth                                : 16 bits
Compression mode                         : Lossy
Stream size                              : 413 MiB (5%)
Title                                    : ПД - 5.1 @ 448 kbps
Language                                 : Ukrainian
Service kind                             : Complete Main
Default                                  : Yes
Forced                                   : Yes

Audio #2
ID                                       : 3
Format                                   :
Format/Info                              : Digital Theater Systems
Codec ID                                 : A_DTS
Duration                                 : 2 h 9 min
Bit rate mode                            : Constant
Bit rate                                 : 1 509 kb/s
Channel(s)                               : 6 channels
Channel positions                        : Front: L C R, Side: L R, LFE
Sampling rate                            : 48.0 kHz
Frame rate                               : 93.750 FPS (512 SPF)
Bit depth                                : 24 bits
Compression mode                         : Lossy
Stream size                              : 1.36 GiB (17%)
Title                                    : 5.1 @ 1536 kbps
Language                                 : English
Default                                  : No
Forced                                   : No

Text #1
ID                                       : 4
Format                                   : UTF-8
Codec ID                                 : S_TEXT/UTF8
Codec ID/Info                            : UTF-8 Plain Text
Duration                                 : 1 h 49 min
Bit rate                                 : 1 b/s
Count of elements                        : 28
Stream size                              : 1.59 KiB (0%)
Title                                    : Forced
Language                                 : Ukrainian
Default                                  : Yes
Forced                                   : Yes

Text #2
ID                                       : 5
Format                                   : UTF-8
Codec ID                                 : S_TEXT/UTF8
Codec ID/Info                            : UTF-8 Plain Text
Duration                                 : 2 h 1 min
Bit rate                                 : 43 b/s
Count of elements                        : 1197
Stream size                              : 38.9 KiB (0%)
Title                                    : Full
Language                                 : English
Default                                  : No
Forced                                   : No

Text #3
ID                                       : 6
Format                                   : UTF-8
Codec ID                                 : S_TEXT/UTF8
Codec ID/Info                            : UTF-8 Plain Text
Duration                                 : 2 h 2 min
Bit rate                                 : 50 b/s
Count of elements                        : 1561
Stream size                              : 45.7 KiB (0%)
Title                                    : SDH
Language                                 : English
Default                                  : No
Forced                                   : No

Menu
00:00:00.000                             : en:Chapter 01
00:04:08.457                             : en:Chapter 02
00:09:36.367                             : en:Chapter 03
00:14:30.078                             : en:Chapter 04
00:19:49.897                             : en:Chapter 05
00:24:41.063                             : en:Chapter 06
00:29:45.826                             : en:Chapter 07
00:35:00.598                             : en:Chapter 08
00:39:07.595                             : en:Chapter 09
00:47:28.220                             : en:Chapter 10
00:57:16.224                             : en:Chapter 11
01:02:55.271                             : en:Chapter 12
01:09:26.829                             : en:Chapter 13
01:14:30.299                             : en:Chapter 14
01:21:43.774                             : en:Chapter 15
01:30:10.530                             : en:Chapter 16
01:38:15.515                             : en:Chapter 17
01:44:08.742                             : en:Chapter 18
01:54:07.215                             : en:Chapter 19
02:03:00.290                             : en:Chapter 20
Світлини





Джерело: &
Особиста оцінка: 9 - давно не бачив настільки якісне кіно


 Трекер:    Зареєстрований   

Завантажити / скачати фільм українською



відео для новачків



 Зареєстрований:   2019-05-19 14:32
 Розмір:   8.05 GB 
 Оцінка фільму:   8.4/10 (Голосів: 7)
   
Інші релізи
   Скло / Glass (2019) UHD Remux 2160p 4K HDR H.265 Ukr/Eng kocyxuh  1 / 0   63.79 GB   2019-06-30 21:36 
   Скло / Glass (2019) Remux 1080p Ukr/Eng | Sub Eng IronBee  2 / 0   30.76 GB   2019-05-18 20:28 
   Скло / Glass (2019) antik_2008  9 / 0   1.73 GB   2019-05-07 15:37 
   Скло / Glass (2019) 1080p Ukr/Eng | Sub Eng antik_2008  6 / 0   14.51 GB   2019-05-04 23:13 
   Скло / Glass (2019) AVC uafilm.tv  18 / 3   1.46 GB   2019-05-04 20:11 
   Скло / Glass (2019) 720p Ukr/Eng | Sub Eng 11FrYkT  17 / 0   5.77 GB   2019-05-04 20:03 
   Скло / Glass (2019) AVC Ukr/Eng | Sub Eng 11FrYkT  7 / 0   2.41 GB   2019-05-04 10:51 
   Скло / Glass (2019) Ukr/Eng Neo_Men  19 / 0   2.17 GB   2019-04-08 14:28 
   Скло / Glass (2019) UHD mini 2160p 4K HDR H.265 Ukr/Eng | Sub Eng/Fra/Spa Neo_Men  6 / 0   18.34 GB   2019-04-08 14:07 
Ваш часовий пояс: GMT + 2 Години

Нова тема   Відповісти