Свінгери 2 (2019)

Нові коментарі

Нова тема   Відповісти
Автор Повідомлення
Anonymous 







2019-05-19 00:06  
Свінгери 2 (2019)

Альтернативний постер:



Жанр: комедія, мелодрама
Країна: Україна



Кінокомпанія: F Films
Режисер: Андрейс Екіс
Актори: Ольга Полякова, Михайло Кукуюк, Даша Астаф'єва, В'ячеслав Довженко, Анна Саліванчук, Олексій Вертинський, Михайло Хома, Діва Монро та інші

Сюжет:
Кожна людина має свій рівень потреб у сексі. Хтось згорає від ревнощів навіть якщо на його партнера дивиться стороння людина, а комусь це лише додає запалу. Деякі пари мають однакове бажання, а в декого подружнє ліжко з дня у день лишається порожнім та холодним. Герої стрічки, відомі глядачам по першій частині, не зупиняються перед життєвими труднощами аби досягти гармонії зі своїми тілами та отримати бажану насолоду.
Офіційні трейлери:






Вікова категорія: 16+

Тривалість: 01:29:27
Якість: [Hurtom]
Відео:
кодек:
розмір кадру: 720 х 304
бітрейт: 1926 кб/с

Аудіо:
мова: українська
переклад: оригінал
кодек: 5.1
бітрейт: 384 кб/с
Info
Код:
General
Complete name               : Svingery 2 (2019) [Hurtom].avi
Format                      : AVI
Format/Info                 : Audio Video Interleave
File size                   : 1.45 GiB
Duration                    : 1 h 29 min
Overall bit rate            : 2 320 kb/s
Movie name                  : Свінгери 2 (2019) [Ukr] [Hurtom]
Writing application         : VirtualDubModUkr 1.5.10.2 (build 2542/release)
Writing library             : VirtualDubMod build 2542/release

Video
ID                          : 0
Format                      : MPEG-4 Visual
Format profile              : Advanced [email protected]
Format settings             : BVOP1
Format settings, BVOP       : 1
Format settings, QPel       : No
Format settings, GMC        : No warppoints
Format settings, Matrix     : Default (MPEG)
Codec ID                    :
Codec ID/Hint               :
Duration                    : 1 h 29 min
Bit rate                    : 1 926 kb/s
Width                       : 720 pixels
Height                      : 304 pixels
Display aspect ratio        : 2.35:1
Frame rate                  : 24.000 FPS
Color space                 : YUV
Chroma subsampling          : 4:2:0
Bit depth                   : 8 bits
Scan type                   : Progressive
Compression mode            : Lossy
Bits/(Pixel*Frame)          : 0.367
Stream size                 : 1.20 GiB (83%)
Writing library             : 67

Audio
ID                          : 1
Format                      : AC-3
Format/Info                 : Audio Coding 3
Commercial name             : Dolby Digital
Codec ID                    : 2000
Duration                    : 1 h 29 min
Bit rate mode               : Constant
Bit rate                    : 384 kb/s
Channel(s)                  : 6 channels
Channel layout              : L R C LFE Ls Rs
Sampling rate               : 48.0 kHz
Frame rate                  : 31.250 FPS (1536 SPF)
Bit depth                   : 16 bits
Compression mode            : Lossy
Stream size                 : 246 MiB (17%)
Alignment                   : Split across interleaves
Interleave, duration        : 42  ms (1.00 video frame)
Interleave, preload duratio : 500  ms
Service kind                : Complete Main


Джерело:
Подяка автору реліза-першоджерела.


Золотий реліз (завантажене не впливає на рейтинг)
 Трекер:    Зареєстрований   

Завантажити / скачати український фільм



відео для новачків



 Зареєстрований:   2019-05-19 14:30
 Розмір:   1.45 GB 
 Оцінка фільму:   8.2/10 (Голосів: 53)
   
Antot_12 
Частий відвідувач


З нами з: 07.12.17
Востаннє: 03.03.21
Повідомлень: 28

2019-05-19 01:18  
Шлак, не раджу навіть дивитися
11FrYkT 
Модератор відео


З нами з: 20.02.11
Востаннє: 03.03.21
Повідомлень: 7152

2019-05-19 08:07  
АВЦ
Anonymous 







2019-05-19 14:31  
Реліз на роздачі.
zphoenix883 
Новенький


З нами з: 09.12.18
Востаннє: 20.02.21
Повідомлень: 12

2019-05-19 15:40  
Дуже гарне кiно!дивитися обов`язково !
sancho3030 
Новенький


З нами з: 01.04.12
Востаннє: 28.02.21
Повідомлень: 10

2019-05-19 17:28  
Де можна знайти першу частину?
havryk 
VIP


З нами з: 29.06.10
Востаннє: 03.03.21
Повідомлень: 845

2019-05-19 17:34  
sancho3030 написано:

Де можна знайти першу частину?

В пошуку - https://toloka.to/tracker.php?nm=%D1%81%D0%B2%D1%96%D0%BD%D0%B3%D0%B5%D1%80%D0%B8

ssTAss 
Модератор музики


З нами з: 05.07.08
Востаннє: 03.03.21
Повідомлень: 17415

2019-05-19 21:31  
Antot_12 написано:
Шлак, не раджу навіть дивитися

zphoenix883 написано:
Дуже гарне кiно!дивитися обов`язково !

Wide grin
Але дивитись не буду (першу також не дивився). Чому? Бо органічно не переварюю ПаДлякову. Від одного вигляду її кацапської пики мене верне, підозрюю, що і акторка вона нікудишня. Такій дурепі тільки в кАкошніках в цирку виступати і то як чучундра (як колись в цирку різних фріків виставляли). Сам фільм може й нічогенький (судячи з другого скріна Wink (2) ), але хіба немає в Україні красивих акторок, так ні, треба було те одоробло взяти.

[email protected] 
Новенький


З нами з: 16.09.18
Востаннє: 28.02.21
Повідомлень: 11

2019-05-19 22:28  
ФЕ!!!!!!! ПОПУЛЯРИЗАЦІЯ ВСІЛЯКИХ БЛЯ***ЮГ. ЧЕРЕЗ ТАКИХ ШВАБР В ЖОПОШНІКАХ ІНШІ ДІВЧАТА СТРАЖДАЮТЬ

Додано через 1 хвилину 18 секунд:

ТА Й ДАРИНА ВЖЕ РОЗТЯНУТА ЗАНАДТО НА ЇЇ РОКИ.

leokill29 
Новенький


З нами з: 04.08.17
Востаннє: 18.02.21
Повідомлень: 5

2019-05-24 10:37  
Подивився фільм. Фільм цікавий та кумедний. Але гірший задум ніж у першої частини. Тому поставлю 7/10
[email protected] 
Новенький


З нами з: 07.03.17
Востаннє: 17.02.21
Повідомлень: 6

2019-05-27 08:18  
Чергова Українська порнуха, якщо так і далі піде то про педиків знімати скоро почнуть куди ми котимось..
rev123 
Свій


З нами з: 05.04.13
Востаннє: 24.02.21
Повідомлень: 102

2019-05-27 11:46  
Всі пенсіонерки окружної - в зборі!

Додано через 2 хвилини 18 секунд:

ФУ! ВІДСТІЙНА ПРОПАГАНДА БЛЯДСТВА І ЗБОЧЕНЬ! УКРКІНО ОБЛІКО МОРАЛЕ...

andriy_nv 
VIP


З нами з: 27.06.08
Востаннє: 03.03.21
Повідомлень: 1131

2019-05-31 17:49  
в першій частині хоч якась мораль була...

є декілька смішних моментів, раз глянути можна
особливо якщо першу частину дивились

don pedro 
Попереджень: 1
Попереджень: 1 


З нами з: 29.06.11
Востаннє: 03.03.21
Повідомлень: 18887

2019-05-31 20:19  
Літопис цьогорічних президентських виборів в Україні.
Anonymous 







2019-05-31 20:24  
don pedro написано:
Літопис цьогорічних президентських виборів в Україні.

а може й парламентських Happy

https://www.bbc.com/ukrainian/features-48448474

don pedro 
Попереджень: 1
Попереджень: 1 


З нами з: 29.06.11
Востаннє: 03.03.21
Повідомлень: 18887

2019-05-31 20:39  
Anonymous
Молода Леді ЮHappy

HTTPS2HTTPS 
Частий відвідувач


З нами з: 05.02.17
Востаннє: 02.03.21
Повідомлень: 47

2019-06-04 23:19  
Леді "О". Або Леді "нуль". Початок.
Я сумно дивлюся на нове покоління блядєй невихованих.
Вагінотворчість.
А потім ці "пающіє труси в какошніку" дивуються, чому електорат не сприймає серйозно партію Полякової.
Хто-небудь, розбудіть мене !!!

bluz 
Частий відвідувач


З нами з: 30.07.09
Востаннє: 03.03.21
Повідомлень: 31

2021-01-27 11:34  
Легка кумедна комедія для дорослих.
Не сподобається тим хто звик до голівуду.

Ваш часовий пояс: GMT + 2 Години

Нова тема   Відповісти