Конкурсант. Смертоносне шоу (2016)

Нові коментарі

Нова тема   Відповісти
Автор Повідомлення
Anonymous 







2019-05-18 23:02  
Конкурсант. Смертоносне шоу (2016)



Жанр: детектив, бойовик
Країна: Україна



Кінокомпанія: VAIT FILMS
Режисер: Олександр Бєляк
Актори: Сергій Маслов, Яна Ройхман, Ілля Карпов, Даша Астаф'єва, Олександр Пономарьов, Борис Барський, Тетяна Решетняк, Фелікс Шиндер, Антон Копитін, Аніс Еттаєб та інші

Сюжет:
Після закінчення музичного шоу "Конкурсант" починаються жорстокі вбивства членів журі. Музичні шоу в світі стають все більш популярними, але ніхто не думає про тисячі спустошених і розчарованих конкурсантів, які так і не змогли досягти перемоги. Тарас Майстренко - учасник конкурсу, стає головним підозрюваним, його переслідує поліція, бандити та звичайні громадяни. На допомогу Тарасу приходить фанатка, закохана в його талант. Чи справді вона хоче йому допомогти? Доведе Тарас свою невинність? Та чи дійсно він невинен в цих злочинах?
Офіційний український трейлер:


Вікова категорія: 16+

Тривалість: 01:50:44
Якість: [Hurtom]
Відео:
кодек:
розмір кадру: 720 х 304
бітрейт: 1696 кб/с

Аудіо:
мова: українська
переклад: професійний дубльований | студія Tretyakoff production
кодек: 2.0
бітрейт: 192 кб/с
Info
Код:
General
Complete name               : Konkursant. Smertonosne shou (2016) [Ukr] [Hurtom].avi
Format                      : AVI
Format/Info                 : Audio Video Interleave
File size                   : 1.47 GiB
Duration                    : 1 h 50 min
Overall bit rate            : 1 898 kb/s
Movie name                  : Конкурсант. Смертоносне шоу (2016) [Hurtom]
Writing application         : VirtualDubModUkr 1.5.10.2 (build 2542/release)
Writing library             : VirtualDubMod build 2542/release

Video
ID                          : 0
Format                      : MPEG-4 Visual
Format profile              : Advanced [email protected]
Format settings             : BVOP1
Format settings, BVOP       : 1
Format settings, QPel       : No
Format settings, GMC        : No warppoints
Format settings, Matrix     : Default (MPEG)
Codec ID                    :
Codec ID/Hint               :
Duration                    : 1 h 50 min
Bit rate                    : 1 696 kb/s
Width                       : 720 pixels
Height                      : 304 pixels
Display aspect ratio        : 2.35:1
Frame rate                  : 24.000 FPS
Color space                 : YUV
Chroma subsampling          : 4:2:0
Bit depth                   : 8 bits
Scan type                   : Progressive
Compression mode            : Lossy
Bits/(Pixel*Frame)          : 0.323
Stream size                 : 1.31 GiB (89%)
Writing library             : 67

Audio
ID                          : 1
Format                      : AC-3
Format/Info                 : Audio Coding 3
Commercial name             : Dolby Digital
Codec ID                    : 2000
Duration                    : 1 h 50 min
Bit rate mode               : Constant
Bit rate                    : 192 kb/s
Channel(s)                  : 2 channels
Channel layout              : L R
Sampling rate               : 48.0 kHz
Frame rate                  : 31.250 FPS (1536 SPF)
Bit depth                   : 16 bits
Compression mode            : Lossy
Stream size                 : 152 MiB (10%)
Alignment                   : Split across interleaves
Interleave, duration        : 42  ms (1.00 video frame)
Interleave, preload duratio : 500  ms
Service kind                : Complete Main


Джерело:
Подяка автору реліза-першоджерела.


Золотий реліз (завантажене не впливає на рейтинг)
 Трекер:    Зареєстрований   

Завантажити / скачати український фільм



відео для новачків



 Зареєстрований:   2019-05-19 06:51
 Розмір:   1.47 GB 
 Оцінка фільму:   7.9/10 (Голосів: 18)
   
laszlozp 
Забанено
Забанено


З нами з: 28.07.19
Востаннє: 13.11.19
Повідомлень: 492

2019-07-30 15:27  
Стільки людей подякувало, а восьмеро навіть оцінку вліпили і жодного слівця про фільм. Як кіно? Хтів для матері завантажити але вагаюся..
telefunx 
Забанено
Забанено


З нами з: 19.04.19
Востаннє: 14.08.19
Повідомлень: 19

2019-07-30 15:35  
laszlozp
Говорять, що дуже гарний фільм. Треба буде обов'язково подивитися. "Працюй, працюй, Труфальдіно!"

kostyatest 
Свій


З нами з: 01.02.18
Востаннє: 08.03.21
Повідомлень: 70

2019-07-31 11:36  
кацапську перекладено, тож дяка.
Вистава від Барського з Пономарьовим пастка (хибна додача до звуків оригиналу), тому дивитися бажання нема :-)

TuBorg_KrazY 
Новенький


З нами з: 04.08.13
Востаннє: 28.02.21
Повідомлень: 5

2019-08-04 12:42  
Цікавий фільм.
jenyaklim87 
Новенький


З нами з: 20.04.15
Востаннє: 08.03.21
Повідомлень: 10

2019-10-09 19:05  
Подивився я цей фільм. І виникло бажання попросити більше не знімати такі "шедеври". Лише українські пісні дозволили додивитись до кінця. Особливий респект монтажеру (чи як цю людину назвати). Це, просто, нарізка з епізодів. Актор невідомо звідки з'явився - зробив справу - і зник у невідомому напрямі. Ще плюс практично беземоційний дубляж. По оцінкам: Сюжет 5/10. Гра акторів - 5/10. Режисерська робота 4/10. Хто цінує свій час, можете пройти мимо.
Ваш часовий пояс: GMT + 2 Години

Нова тема   Відповісти