Прикрась прощальний ранок квітами надії / Sayonara no asa ni yakusoku no hana o kazaro (2018) 720p-mini Ukr/Jap | Sub Ukr

Нові коментарі

Нова тема   Відповісти
Автор Повідомлення
Arch Enemy 
VIP


З нами з: 30.08.12
Востаннє: 19.08.19
Повідомлень: 1689

2019-05-18 19:35  
Прикрась прощальний ранок квітами надії / Sayonara no asa ni yakusoku no hana o kazaro (2018) 720p-mini Ukr/Jap | Sub Ukr





Країна: Японія
Прем'єра: 24.02.2018
Жанр: романтика, драма, фентезі
Аніместудія: P.A. Works

Режисер: Марі Окада
Сейю: Манака Івамі, Мію Іріно, Йоко Хікаса, Хіроакі Хірата, Йошімаса Хосоя та інші.

Сюжет:
Юна дівчина Макія належить до роду безсмертних йольфів. Живучи в ізоляції, вони регулярно піддаються нападам з боку людей, які хочуть дістати загадковий секрет безсмертя. Одного разу, під час чергового нападу, Макії вдається сховатися в лісі. Там вона зустрічає юного хлопчика Еріала, що втратив батьків.


Тривалість: 01год. 54хв. 49сек.

якість:
контейнер:
кодек:
частота кадрів: 23.976 кадрів/сек.
розмір кадру: 1280х720 пікс.
бітрейт: ~1875 кбіт/сек.
бітність: 8 біт.

Аудіо # 1:
мова: українська, двоголосе закадрове озвучення.
кодек:
кількість каналів: 2.0
бітрейт: 256 кбіт/сек.
частота: 48000 Гц

Аудіо # 2:
мова: японська, оригінал
кодек:
кількість каналів: 2.0
бітрейт: 215 кбіт/сек.
частота: 48000 Гц

Субтитри:
мова: українська
формат:
тип: м'які, внутрішні

Переклад та озвучення: AniUA за підтримки Anitube
Скріншоти


MI
General
Unique ID : 253800752385419396460300642486028204600 (0xBEF03F345C4E8426896B08581A49FA38)
Complete name : E:\Anime\Sayonara no Asa ni Yakusoku no Hana o Kazarou (BD 1280x720 ) Ukr Dub Sub.
Format :
Format version : Version 4 / Version 2
File size : 1.89 GiB
Duration : 1 h 54 min
Overall bit rate : 2 351 kb/s
Encoded date : UTC 2019-05-17 20:41:34
Writing application : v7.0.0 ('Where We Going') 32bit built on Jun 9 2014 15:08:34
Writing library : libebml v1.3.0 + v1.4.1
Cover : Yes
Attachments : BarnaulGrotesk.otf / CORBELB.TTF / CORBELZ.TTF / cover.jpg

Video
ID : 1
Format : AVC
Format/Info : Advanced Video Codec
Format profile : [email protected]
Format settings : CABAC / 4 Ref Frames
Format settings, CABAC : Yes
Format settings, ReFrames : 4 frames
Codec ID : V_MPEG4/ISO/AVC
Duration : 1 h 54 min
Bit rate : 1 877 kb/s
Width : 1 280 pixels
Height : 720 pixels
Display aspect ratio : 16:9
Frame rate mode : Constant
Frame rate : 23.976 (24000/1001) FPS
Color space : YUV
Chroma subsampling : 4:2:0
Bit depth : 8 bits
Scan type : Progressive
Bits/(Pixel*Frame) : 0.085
Stream size : 1.51 GiB (80%)
Title : Квіти на прощання
Writing library : core 157 r2935 545de2f
Encoding settings : cabac=1 / ref=3 / deblock=1:0:0 / analyse=0x1:0x131 / me=umh / subme=9 / psy=1 / psy_rd=1.00:0.00 / mixed_ref=1 / me_range=32 / chroma_me=1 / trellis=1 / 8x8dct=0 / cqm=0 / deadzone=21,11 / fast_pskip=1 / chroma_qp_offset=-2 / threads=18 / lookahead_threads=1 / sliced_threads=0 / nr=0 / decimate=1 / interlaced=0 / bluray_compat=0 / constrained_intra=0 / bframes=3 / b_pyramid=2 / b_adapt=1 / b_bias=0 / direct=1 / weightb=1 / open_gop=0 / weightp=2 / keyint=240 / keyint_min=1 / scenecut=40 / intra_refresh=0 / rc_lookahead=40 / rc=crf / mbtree=1 / crf=18.0 / qcomp=0.60 / qpmin=0 / qpmax=69 / qpstep=4 / ip_ratio=1.40 / aq=1:1.00
Language : Japanese
Default : Yes
Forced : Yes

Audio #1
ID : 2
Format : LC
Format/Info : Advanced Audio Codec Low Complexity
Codec ID : A_AAC-2
Duration : 1 h 54 min
Bit rate : 256 kb/s
Channel(s) : 2 channels
Channel layout : L R
Sampling rate : 48.0 kHz
Frame rate : 46.875 FPS (1024 SPF)
Compression mode : Lossy
Stream size : 210 MiB (11%)
Title : двоголосий закадровий (Studio AniUA)
Language : Ukrainian
Default : Yes
Forced : Yes

Audio #2
ID : 3
Format : LC
Format/Info : Advanced Audio Codec Low Complexity
Codec ID : A_AAC-2
Duration : 1 h 54 min
Bit rate : 215 kb/s
Channel(s) : 2 channels
Channel layout : L R
Sampling rate : 48.0 kHz
Frame rate : 46.875 FPS (1024 SPF)
Compression mode : Lossy
Stream size : 176 MiB (9%)
Title : оригінальна доріжка
Language : Japanese
Default : No
Forced : No

Text
ID : 4
Format :
Codec ID : S_TEXT/
Codec ID/Info : Advanced Sub Station Alpha
Duration : 1 h 48 min
Bit rate : 103 b/s
Count of elements : 1312
Compression mode : Lossless
Stream size : 82.5 KiB (0%)
Title : повні (Studio AniUA)
Language : Ukrainian
Default : No
Forced : No

Menu
00:00:00.000 : en:: en:Chapter 1
00:05:48.473 : en:: en:Chapter 2
00:12:58.861 : en:: en:Chapter 3
00:16:44.169 : en:: en:Chapter 4
00:23:16.770 : en:: en:Chapter 5
00:32:22.941 : en:: en:Chapter 6
00:42:35.678 : en:: en:Chapter 7
00:48:53.847 : en:: en:Chapter 8
00:57:57.432 : en:: en:Chapter 9
01:10:14.418 : en:: en:Chapter 10
01:14:20.956 : en:: en:Chapter 11
01:23:31.840 : en:: en:Chapter 12
01:28:38.396 : en:: en:Chapter 13
01:34:28.037 : en:: en:Chapter 14
01:39:32.299 : en:: en:Chapter 15
01:41:58.195 : en:: en:Chapter 16
01:49:19.386 : en:: en:Chapter 17
01:54:35.869 : en:: en:Chapter 18


Авторський реліз (завантажувати можна без реєстрації)
 Трекер:    Зареєстрований   

Завантажити / скачати аніме українською



відео для новачків



 Зареєстрований:   2019-05-18 19:35
 Розмір:   1.89 GB 
 Оцінка аніме:   9.9/10 (Голосів: 9)
   
AniSky 
Новенький


З нами з: 13.01.17
Востаннє: 19.08.19
Повідомлень: 18

2019-05-19 20:36  
10/10. Раджу цей фільм всім. Ця гарна історія не залишить ваші почуття осторонь. Особисто мене цей фільм довів до сліз.
Konstantin_Exorcist 
Забанено
Забанено


З нами з: 18.11.14
Востаннє: 15.08.19
Повідомлень: 152

2019-05-20 23:38  
Шедевр, який вичавить з тебе все, до останньої сльозинки (ну або ж хоча б з мене).
Ваш часовий пояс: GMT + 2 Години

Нова тема   Відповісти