Сирена (Сезон 1) / Siren (Season 1) (2018) 1080p Ukr/Eng | Sub Eng

Нові коментарі

Нова тема   Відповісти
Останній раз роздавалося Neytreenor (2020-11-30)
Автор Повідомлення
Anonymous 







2019-05-18 18:21  
Сирена (Сезон 1) / Siren (Season 1) (2018) 1080p Ukr/Eng | Sub Eng

Сирена (Сезон 1) / Siren (Season 1) (2018) 1080p Ukr/Eng | Sub Eng


Жанр: драма, фентезі
Країна: США



Кінокомпанія: Freeform
Режисер: Ерік Волд (Eric Wald), Дін Вайт (Dean White)
Актори: Алекс Роу (Alex Roe), Елайн Пауелл (Eline Powell), Фола Еванс-Екінбола (Fola Evans-Akingbola) та інші

Сюжет:
У прибережний місто Брістоль-Коув прибуває таємнича дівчина. Виявляється, що місцева легенда про древню істоту, сирену, – правда. Та своєю появою вона розв’язує війну в океані.

Тривалість: 1 серія: ~42 хв. (цілком серій: 10)
Перелік серій
01) The Mermaid Discovery
02) The Lure
03) Interview with a Mermaid
04) On the Road
05) Curse of the Starving Class
06) Showdown
07) Dead in the Water
08) Being Human
09) Street Fight
10) Aftermath
Якість:
Відео:
кодек:
розмір кадру: 1920 х 1080
бітрейт: ~10 мб/с

Аудіо # 1:
мова: українська
переклад: багатоголосий закадровий
кодек: 2.0
бітрейт: 192 кб/с

Аудіо # 2:
мова: англійська
переклад: оригінал
кодек: E- 5.1
бітрейт: 640 кб/с

Джерело озвучення:


Субтитри:
мова: англійська
тип: програмні (м'які)
формат: *.srt
Info
General
Unique ID : 134795881417894322949680202486430539973 (0x6568BE1090EF1B502464B20EABFBA0C5)
Complete name : F:\Support\series\Siren (Season 1) [, 1080p, Ukr, Eng]\Siren. s01e01. The Mermaid Discovery.
Format :
Format version : Version 4
File size : 2.96 GiB
Duration : 45 min 57 s
Overall bit rate mode : Variable
Overall bit rate : 9 217 kb/s
Encoded date : UTC 2019-05-18 15:07:49
Writing application : v33.1.0 ('Primrose') 64-bit
Writing library : libebml v1.3.7 + v1.5.0

Video
ID : 1
Format : AVC
Format/Info : Advanced Video Codec
Format profile : [email protected]
Format settings : CABAC / 4 Ref Frames
Format settings, CABAC : Yes
Format settings, ReFrames : 4 frames
Codec ID : V_MPEG4/ISO/AVC
Duration : 45 min 57 s
Bit rate mode : Variable
Bit rate : 8 383 kb/s
Maximum bit rate : 15.0 Mb/s
Width : 1 920 pixels
Height : 1 080 pixels
Display aspect ratio : 16:9
Frame rate mode : Constant
Frame rate : 23.976 (24000/1001) FPS
Color space : YUV
Chroma subsampling : 4:2:0
Bit depth : 8 bits
Scan type : Progressive
Bits/(Pixel*Frame) : 0.169
Stream size : 2.69 GiB (91%)
Language : English
Default : Yes
Forced : No
Color range : Limited
Color primaries : BT.709
Transfer characteristics : BT.709
Matrix coefficients : BT.709

Audio #1
ID : 2
Format : AC-3
Format/Info : Audio Coding 3
Commercial name : Dolby Digital
Codec ID : A_AC3
Duration : 45 min 57 s
Bit rate mode : Constant
Bit rate : 192 kb/s
Channel(s) : 2 channels
Channel layout : L R
Sampling rate : 48.0 kHz
Frame rate : 31.250 FPS (1536 SPF)
Bit depth : 16 bits
Compression mode : Lossy
Stream size : 63.1 MiB (2%)
Title : Новий
Language : Ukrainian
Service kind : Complete Main
Default : Yes
Forced : No

Audio #2
ID : 3
Format : E-AC-3
Format/Info : Enhanced AC-3
Commercial name : Dolby Digital Plus
Codec ID : A_EAC3
Duration : 45 min 57 s
Bit rate mode : Constant
Bit rate : 640 kb/s
Channel(s) : 6 channels
Channel layout : L R C LFE Ls Rs
Sampling rate : 48.0 kHz
Frame rate : 31.250 FPS (1536 SPF)
Compression mode : Lossy
Stream size : 210 MiB (7%)
Language : English
Service kind : Complete Main
Default : No
Forced : No

Text
ID : 4
Format : UTF-8
Codec ID : S_TEXT/UTF8
Codec ID/Info : UTF-8 Plain Text
Duration : 45 min 32 s
Bit rate : 53 b/s
Count of elements : 698
Stream size : 17.9 KiB (0%)
Language : English
Default : No
Forced : No
Скріншоти

Дякую krigg070 та Петров Микола за запис з ТБ та синхронізацію української доріжки

Джерело: &
Особиста оцінка: 0 - не дивився





Бронзовий реліз (на рейтинг впливає 75% завантаженого)
 Трекер:    Зареєстрований   

Завантажити / скачати серіал українською



відео для новачків



 Зареєстрований:   2019-05-18 18:21
 Розмір:   31.31 GB 
 Оцінка серіалу:   10/10 (Голосів: 2)
   
slavthuk 
Новенький


З нами з: 03.01.09
Востаннє: 22.11.20
Повідомлень: 18

2020-02-16 10:15  
От як би ще українські субтитри ще знайти
igor911 
Модератор відео


З нами з: 18.01.08
Востаннє: 29.11.20
Повідомлень: 15083

2020-02-16 10:42  
slavthuk написано:
От як би ще українські субтитри ще знайти

Їх не існує, наберіть з озвучення.

Ваш часовий пояс: GMT + 2 Години

Нова тема   Відповісти