Хоробре серце. Змова в королівстві / Ritter Rost 2: Das Schrottkomplott (2017) AVC

Нові коментарі

Нова тема   Відповісти
Автор Повідомлення
sergiyko.5 
VIP


З нами з: 25.02.16
Востаннє: 17.06.19
Повідомлень: 2328

2019-05-18 13:30  
Хоробре серце. Змова в королівстві / Ritter Rost 2: Das Schrottkomplott (2017) AVC

Хоробре серце. Змова в королівстві / Ritter Rost 2: Das Schrottkomplott (2017) AVC

Жанр: комедія, мультфільм, пригоди, фентезі
Країна: Німеччина
Режисер: Томас Боденштайн
Сценарист: Габріела Вальтер
Продюсер: Габріела Вальтер
Актори: Том Герхардт, Йєлла Хаазе, Крістоф Марія Хербст, Детлеф Редінгер, Дастін Земмельрогге ...

Сюжет:
Порожня казна королівства Металломії змушує короля розпустити армію, а тим часом глава поліції захоплює трон. Не бажаючи бачити, як руйнується королівство під царюванням нового короля, Рості та його друзі вирішують врятувати рідну Металломію.




Цікаві факти про мультфільм "Хоробре серце. Змова в королівстві":

- У мультфільмі "Хоробре серце. Змова в королівстві" можна побачити відсилання до фільму Джеймса Кемерона "Титанік" і Джона Стерджеса "Прекрасна сімка".

Прем'єра в Україні: 01.11.2018

Світова прем'єра: 19.01.2017


Тривалість: 01:27:13
Якість:

Відео: кодек: розмір кадру: 1024 х 576 бітрейт: 1600 кб/с
Аудіо: мова: українська переклад: професійний дубльований кодек: 2.0 бітрейт: 192 кб/с | Студія AAA-Sound |
Про файл:
General
Unique ID : 177716652166736040263039934378608572813 (0x85B2FB719E1A121D638E96E72406398D)
Complete name : G:\Torrents2\MULT\Ritter Rost 2. Das Schrottkomplott.2017.AVC.
Format :
Format version : Version 4
File size : 1.07 GiB
Duration : 1 h 27 min
Overall bit rate : 1 752 kb/s
Movie name : Хоробре серце. Змова у королівстві
Encoded date : UTC 2019-05-18 10:24:19
Writing application : v33.1.0 ('Primrose') 64-bit
Writing library : libebml v1.3.7 + v1.5.0
Cover : Yes
Attachments : cover.jpg

Video
ID : 1
Format : AVC
Format/Info : Advanced Video Codec
Format profile : [email protected]
Format settings : CABAC / 12 Ref Frames
Format settings, CABAC : Yes
Format settings, Reference : 12 frames
Codec ID : V_MPEG4/ISO/AVC
Duration : 1 h 27 min
Bit rate : 1 558 kb/s
Width : 1 024 pixels
Height : 576 pixels
Display aspect ratio : 16:9
Frame rate mode : Constant
Frame rate : 23.976 (24000/1001) FPS
Color space : YUV
Chroma subsampling : 4:2:0
Bit depth : 8 bits
Scan type : Progressive
Bits/(Pixel*Frame) : 0.110
Stream size : 972 MiB (89%)
Title : Хоробре серце. Змова у королівстві
Writing library : core 146 r2538 121396c
Encoding settings : cabac=1 / ref=12 / deblock=1:-1:-1 / analyse=0x3:0x133 / me=umh / subme=9 / psy=1 / psy_rd=0.40:0.00 / mixed_ref=1 / me_range=16 / chroma_me=1 / trellis=2 / 8x8dct=1 / cqm=0 / deadzone=21,11 / fast_pskip=1 / chroma_qp_offset=-2 / threads=24 / lookahead_threads=2 / sliced_threads=0 / nr=0 / decimate=1 / interlaced=0 / bluray_compat=0 / constrained_intra=0 / bframes=5 / b_pyramid=2 / b_adapt=2 / b_bias=0 / direct=3 / weightb=1 / open_gop=0 / weightp=2 / keyint=250 / keyint_min=23 / scenecut=40 / intra_refresh=0 / rc_lookahead=60 / rc=crf / mbtree=1 / crf=18.0 / qcomp=0.70 / qpmin=0 / qpmax=69 / qpstep=4 / ip_ratio=1.40 / aq=1:0.60
Language : German
Default : Yes
Forced : No

Audio
ID : 2
Format : AC-3
Format/Info : Audio Coding 3
Commercial name : Dolby Digital
Codec ID : A_AC3
Duration : 1 h 27 min
Bit rate mode : Constant
Bit rate : 192 kb/s
Channel(s) : 2 channels
Channel layout : L R
Sampling rate : 48.0 kHz
Frame rate : 31.250 FPS (1536 SPF)
Bit depth : 16 bits
Compression mode : Lossy
Stream size : 120 MiB (11%)
Title : DUB 2ch | Студія AAA-Sound
Language : Ukrainian
Service kind : Complete Main
Default : Yes
Forced : Yes
Скріншоти:



 Трекер:    Зареєстрований   

Завантажити / скачати мультфільм українською



відео для новачків



 Зареєстрований:   2019-05-18 13:30
 Розмір:   1.07 GB 
 Оцінка мультфільму:   8.9/10 (Голосів: 7)
   
Ваш часовий пояс: GMT + 2 Години

Нова тема   Відповісти