Хоробре серце. Змова в королівстві / Ritter Rost 2: Das Schrottkomplott (2017) 1080p Ukr/Ger | Sub Ger

Нові коментарі

Нова тема   Відповісти
Автор Повідомлення
sergiyko.5 
VIP


З нами з: 25.02.16
Востаннє: 19.06.19
Повідомлень: 2337

2019-05-18 10:17  


Хоробре серце. Змова в королівстві / Ritter Rost 2: Das Schrottkomplott (2017) 1080p Ukr/Ger | Sub Ger

Хоробре серце. Змова в королівстві / Ritter Rost 2: Das Schrottkomplott (2017) 1080p Ukr/Ger | Sub Ger

Жанр: комедія, мультфільм, пригоди, фентезі
Країна: Німеччина
Режисер: Томас Боденштайн
Сценарист: Габріела Вальтер
Продюсер: Габріела Вальтер
Актори: Том Герхардт, Йєлла Хаазе, Крістоф Марія Хербст, Детлеф Редінгер, Дастін Земмельрогге ...

Сюжет:
Порожня казна королівства Металломії змушує короля розпустити армію, а тим часом глава поліції захоплює трон. Не бажаючи бачити, як руйнується королівство під царюванням нового короля, Рості та його друзі вирішують врятувати рідну Металломію.




Цікаві факти:
- У мультфільмі "Хоробре серце. Змова в королівстві" можна побачити відсилання до фільму Джеймса Кемерона "Титанік" і Джона Стерджеса "Прекрасна сімка".

Прем'єра в Україні: 01.11.2018
Світова прем'єра: 19.01.2017


Тривалість: 01:27:13
Якість:

Відео: кодек: розмір кадру: 1920 х 1080 бітрейт: 9800 кб/с
Аудіо 1: мова: українська переклад: професійний дубльований кодек: 2.0 бітрейт: 192 кб/с Студія AAA-Sound
Аудіо 2: мова: німецька переклад: оригінал кодек: 5.1 бітрейт: 384 кб/с
Субтитри 1: (Full) мова: німецька тип: пререндерні формат: *.pgs
Субтитри 2: (SDH) мова: німецька тип: пререндерні формат: *.pgs
Про файл:
General
Unique ID : 72191961587871639879882968805601151125 (0x364FAA82AFAC4EB9476710ACC6578895)
Complete name : G:\Torrents2\MULT\Ritter Rost 2. Das Schrottkomplott.2017..1080p.Ukr.Ger.
Format :
Format version : Version 4
File size : 6.34 GiB
Duration : 1 h 27 min
Overall bit rate : 10.4 Mb/s
Movie name : Хоробре серце. Змова у королівстві
Encoded date : UTC 2019-05-19 19:45:49
Writing application : v33.1.0 ('Primrose') 64-bit
Writing library : libebml v1.3.7 + v1.5.0
Cover : Yes
Attachments : cover.jpg

Video
ID : 1
Format : AVC
Format/Info : Advanced Video Codec
Format profile : [email protected]
Format settings : CABAC / 4 Ref Frames
Format settings, CABAC : Yes
Format settings, Reference : 4 frames
Codec ID : V_MPEG4/ISO/AVC
Duration : 1 h 27 min
Bit rate : 9 806 kb/s
Width : 1 920 pixels
Height : 1 080 pixels
Display aspect ratio : 16:9
Frame rate mode : Constant
Frame rate : 23.976 (24000/1001) FPS
Color space : YUV
Chroma subsampling : 4:2:0
Bit depth : 8 bits
Scan type : Progressive
Bits/(Pixel*Frame) : 0.197
Stream size : 5.97 GiB (94%)
Title : Хоробре серце. Змова у королівстві
Writing library : core 146 r2538 121396c
Encoding settings : cabac=1 / ref=4 / deblock=1:-2:-2 / analyse=0x3:0x133 / me=umh / subme=10 / psy=1 / psy_rd=0.40:0.00 / mixed_ref=1 / me_range=24 / chroma_me=1 / trellis=2 / 8x8dct=1 / cqm=0 / deadzone=21,11 / fast_pskip=1 / chroma_qp_offset=-5 / threads=24 / lookahead_threads=4 / sliced_threads=0 / nr=0 / decimate=1 / interlaced=0 / bluray_compat=0 / constrained_intra=0 / bframes=8 / b_pyramid=2 / b_adapt=2 / b_bias=0 / direct=3 / weightb=1 / open_gop=0 / weightp=2 / keyint=250 / keyint_min=23 / scenecut=40 / intra_refresh=0 / rc_lookahead=60 / rc=2pass / mbtree=1 / bitrate=9806 / ratetol=1.0 / qcomp=0.60 / qpmin=0 / qpmax=51 / qpstep=4 / cplxblur=20.0 / qblur=0.5 / vbv_maxrate=50000 / vbv_bufsize=62500 / nal_hrd=none / filler=0 / ip_ratio=1.40 / aq=1:0.60
Language : German
Default : Yes
Forced : No

Audio #1
ID : 2
Format : AC-3
Format/Info : Audio Coding 3
Commercial name : Dolby Digital
Codec ID : A_AC3
Duration : 1 h 27 min
Bit rate mode : Constant
Bit rate : 192 kb/s
Channel(s) : 2 channels
Channel layout : L R
Sampling rate : 48.0 kHz
Frame rate : 31.250 FPS (1536 SPF)
Bit depth : 16 bits
Compression mode : Lossy
Stream size : 120 MiB (2%)
Title : DUB 2ch | Студія AAA-Sound
Language : Ukrainian
Service kind : Complete Main
Default : Yes
Forced : Yes

Audio #2
ID : 3
Format : AC-3
Format/Info : Audio Coding 3
Commercial name : Dolby Digital
Codec ID : A_AC3
Duration : 1 h 27 min
Bit rate mode : Constant
Bit rate : 384 kb/s
Channel(s) : 6 channels
Channel layout : L R C LFE Ls Rs
Sampling rate : 48.0 kHz
Frame rate : 31.250 FPS (1536 SPF)
Bit depth : 16 bits
Compression mode : Lossy
Stream size : 240 MiB (4%)
Title : Original
Language : German
Service kind : Complete Main
Default : No
Forced : No

Text #1
ID : 4
Format : PGS
Muxing mode : zlib
Codec ID : S_HDMV/PGS
Codec ID/Info : Picture based subtitle format used on BDs/HD-DVDs
Duration : 1 h 21 min
Bit rate : 39.9 kb/s
Count of elements : 2494
Stream size : 23.3 MiB (0%)
Language : German
Default : No
Forced : No

Text #2
ID : 5
Format : PGS
Muxing mode : zlib
Codec ID : S_HDMV/PGS
Codec ID/Info : Picture based subtitle format used on BDs/HD-DVDs
Duration : 1 h 22 min
Bit rate : 45.8 kb/s
Count of elements : 3140
Stream size : 27.1 MiB (0%)
Title : SDH
Language : German
Default : No
Forced : No

Menu
00:00:00.000 : en:00:00:00.000
00:09:14.262 : en:00:09:14.262
00:18:44.665 : en:00:18:44.665
00:30:38.420 : en:00:30:38.420
00:39:49.012 : en:00:39:49.012
00:49:44.356 : en:00:49:44.356
00:59:44.456 : en:00:59:44.456
01:11:31.078 : en:01:11:31.078
01:22:55.095 : en:01:22:55.095
Скріншоти:



Автор ріпу: sergiyko


 Трекер:    Зареєстрований   

Завантажити / скачати мультфільм українською



відео для новачків



 Зареєстрований:   2019-05-19 22:59
 Розмір:   6.34 GB 
 Оцінка мультфільму:   8.1/10 (Голосів: 10)
   
bot 
робот


З нами з: 30.09.07
Востаннє: 26.05.05
Повідомлень: 21522

2019-05-18 10:17  
Тему перенесено з Мультфільми в HD до форуму Анонси релізів


sergiyko.5

bot 
робот


З нами з: 30.09.07
Востаннє: 26.05.05
Повідомлень: 21522

2019-05-18 12:30  
Тему перенесено з Анонси релізів до форуму Мультфільми в HD


sergiyko.5

Electroz 
Відео Гуртом - підтримка та поширення
Відео Гуртом - підтримка та поширення


З нами з: 18.09.14
Востаннє: 19.06.19
Повідомлень: 3424

2019-05-18 13:02  
Цитата:

Параметри кодування мають відповідати хоча б me=umh, subme=7, ref=3
2pass: значення Bits/(Pixel*Frame) має бути не меншим, ніж 0.12, для анімації - 0.08

sergiyko.5 
VIP


З нами з: 25.02.16
Востаннє: 19.06.19
Повідомлень: 2337

2019-05-18 13:51  
Торент буде оновлено після завантаження ремуксу блюрей диску і кодування нового ріпу, часу займе доба-дві.
hetzendorf 
Відео Гуртом - підтримка та поширення
Відео Гуртом - підтримка та поширення


З нами з: 23.07.15
Востаннє: 19.06.19
Повідомлень: 2227

2019-05-18 19:15  
Переклад оригінальної назви: Лицар Іржа 2: Металобрухтова змова.
sergiyko.5 
VIP


З нами з: 25.02.16
Востаннє: 19.06.19
Повідомлень: 2337

2019-05-19 23:00  
Торент оновлено. Замінено відео на якісний ріп.
Ваш часовий пояс: GMT + 2 Години

Нова тема   Відповісти