Хоробре серце. Змова у королівстві / Ritter Rost 2: Das Schrottkomplott (2017) 1080p

Нові коментарі

Нова тема   Відповісти
Останній раз роздавалося Янко Гортало (2019-11-11)
Автор Повідомлення
sergiyko.5 
VIP


З нами з: 25.02.16
Востаннє: 11.11.19
Повідомлень: 2740

2019-05-17 23:44  
Хоробре серце. Змова у королівстві / Ritter Rost 2: Das Schrottkomplott (2017) 1080p

Хоробре серце. Змова у королівстві / Ritter Rost 2: Das Schrottkomplott (2017) 1080p

Жанр: комедія, мультфільм, пригоди, фентезі
Країна, рік: Німеччина, 2017
Режисер: Томас Боденштайн
Сценарист: Габріела Вальтер
Продюсер: Габріела Вальтер
Актори: Том Герхардт, Йєлла Хаазе, Крістоф Марія Хербст, Детлеф Редінгер, Дастін Земмельрогге ...

Сюжет:
Порожня казна королівства Металломії змушує короля розпустити армію, а тим часом глава поліції захоплює трон. Не бажаючи бачити, як руйнується королівство під царюванням нового короля, Рості та його друзі вирішують врятувати рідну Металломію.




Цікаві факти про мультфільм "Хоробре серце. Змова в королівстві":

- У мультфільмі "Хоробре серце. Змова в королівстві" можна побачити відсилання до фільму Джеймса Кемерона "Титанік" і Джона Стерджеса "Прекрасна сімка".

Прем'єра в Україні: 01.11.2018

Світова прем'єра: 19.01.2017


Тривалість: 01:23:15
Якість:

Відео: кодек: розмір кадру: 1912 х 1072 бітрейт: 4000 кб/с
Аудіо: мова: українська переклад: професійний дубльований кодек: 2.0 бітрейт: 192 кб/с Студія AAA-Sound
Увага! Напис російською:
Про файл:
General
Unique ID : 160699801814204884662853258868784062118 (0x78E5A7F20C40250078325D89786B5EA6)
Complete name : G:\Torrents2\MULT\Ritter Rost 2. Das Schrottkomplott.2017..1080p.
Format :
Format version : Version 4
File size : 2.44 GiB
Duration : 1 h 23 min
Overall bit rate : 4 191 kb/s
Movie name : Хоробре серце. Змова у королівстві
Encoded date : UTC 2019-05-17 21:50:41
Writing application : v33.1.0 ('Primrose') 64-bit
Writing library : libebml v1.3.7 + v1.5.0
Cover : Yes
Attachments : cover.jpg

Video
ID : 1
Format : AVC
Format/Info : Advanced Video Codec
Format profile : [email protected]
Format settings : CABAC / 3 Ref Frames
Format settings, CABAC : Yes
Format settings, Reference : 3 frames
Codec ID : V_MPEG4/ISO/AVC
Duration : 1 h 23 min
Bit rate : 3 999 kb/s
Width : 1 912 pixels
Height : 1 072 pixels
Display aspect ratio : 16:9
Frame rate mode : Constant
Frame rate : 25.000 FPS
Color space : YUV
Chroma subsampling : 4:2:0
Bit depth : 8 bits
Scan type : Progressive
Bits/(Pixel*Frame) : 0.078
Stream size : 2.33 GiB (95%)
Title : Хоробре серце. Змова у королівстві
Language : German
Default : Yes
Forced : No

Audio
ID : 2
Format : LC
Format/Info : Advanced Audio Codec Low Complexity
Codec ID : A_AAC-2
Duration : 1 h 23 min
Bit rate : 192 kb/s
Channel(s) : 2 channels
Channel layout : L R
Sampling rate : 44.1 kHz
Frame rate : 43.066 FPS (1024 SPF)
Compression mode : Lossy
Stream size : 113 MiB (5%)
Title : DUB
Language : Ukrainian
Default : Yes
Forced : No
Скріншоти:



 Трекер:    Зареєстрований   

Завантажити / скачати мультфільм українською



відео для новачків



 Зареєстрований:   2019-05-17 23:53
 Розмір:   2.44 GB 
 Оцінка мультфільму:   10/10 (Голосів: 4)
   
igor911 
Модератор відео


З нами з: 18.01.08
Востаннє: 11.11.19
Повідомлень: 13628

2019-05-18 07:33  
Додаток до релізів в якості HD написано:
6. Оригінальна доріжка обов'язкова у всіх релізах HD, крім 720p-mini та багатосерійних.

треба додати оригінальну доріжку

mrbolshoy 
Новенький


З нами з: 31.01.11
Востаннє: 11.11.19
Повідомлень: 9

2019-05-18 10:55  
чогось звук на TV Samsung не робить
sergiyko.5 
VIP


З нами з: 25.02.16
Востаннє: 11.11.19
Повідомлень: 2740

2019-05-18 11:11  
Телевізор Philips 42` 2011 року прекрасно відтворює доріжку релізу.
Ваш часовий пояс: GMT + 2 Години

Нова тема   Відповісти