Гармати острова Наварон / The Guns of Navarone (1961) Remux 1080p Ukr/Eng | Sub Eng

Нові коментарі

Нова тема   Відповісти
Автор Повідомлення
MakRA 
VIP


З нами з: 10.11.18
Востаннє: 18.11.19
Повідомлень: 519

2019-05-17 21:38  
Гармати острова Наварон / The Guns of Navarone (1961) Remux 1080p Ukr/Eng | Sub Eng

Гармати острова Наварон / The Guns of Navarone (1961) Remux 1080p Ukr/Eng | Sub Eng

Альтернативні обкладинки:








Жанр: екшн, пригодницький, драма, воєнний
Країна: Велика Британія, США



Кінокомпанія: Columbia Pictures Corporation, Highroad Productions
Режисер: Джей Лі Томпсон [J. Lee Thompson]
Актори: Ґреґорі Пек [Gregory Peck], Девід Нівен [David Niven], Ентоні Квін [Anthony Quinn], Стенлі Бейкер [Stanley Baker], Ентоні Квейл [Anthony Quayle], Джеймс Дерен [James Darren], Ірен Папас [Irene Papas], Ґія Скала [Gia Scala], Джеймс Робертсон Джастіс [James Robertson Justice], Річард Гарріс [Richard Harris].

Сюжет:
У 1943 році країни осі Рим-Берлін-Токіо захопили Егейське море, що унеможливило евакуацію двох тисяч британських солдатів та цивільних з окупованого німцями острова Лерос. Протока острова Наварон стала єдиною морською дорогою їх евакуації, однак вона перебувала під вогнем двох гігантських гармат, встановлених у неприступній фортеці на півночі острова.

Єдиним способом знищити ці гармати, було рішення командування союзників відправити з диверсійною місією ударну групу командос, яка складалася з англійських та грецьких солдатів. Допомогу групі на острові повинні були надавати місцеві сили грецького опору...

Цікаве про фільм:

-Фільм знято за однойменним романом британського письменника Алістера Макліна.
-Для сцени, де спецназівці видряпуються на майже вертикальні скелі, на підлозі студії був зроблений їх макет так, що актори фактично перелізали по горизонтальній поверхні, а потім зображення було повернене так, щоб скелі здавалися вертикальними.
-Для участі у зйомках фільму грецька армія надала 12 есмінців і понад 1000 піхотинців. Фільм мав бюджет 6 млн. доларів, і на той час, це був один з найдорожчих фільмів.


Нагороди:

1962 Премія «Оскар» Академії кінематографічних мистецтв і наук:
за найкращі візуальні ефекти — Білл Ворінгтон
за найкращий звуковий монтаж — Кріс Грінем
1962 Премія «Золотий глобус» Голлівудської асоціації іноземної преси:
Премія «Золотий глобус» за найкращий фільм — драма — Джон Лі Томпсон
Премія «Золотий глобус» за оригінальну музику — Дмитро Тьомкін.


Тривалість: 02:36:21
Якість: Remux 1080p
Відео:
кодек:
розмір кадру: 1920 х 1080
бітрейт: 23,7 Мб/с

Аудіо # 1:
мова: українська
переклад: двоголосий закадровий
кодек: 2.0
бітрейт: 192 кб/с
Про озвучення:
Переклад:Валентини Бойван
Літературний редактор:Оксана Батюк
Звукорежисер:Віктор Коляда
Режисер:Станіслав Чернілевський
Текст читали актори:Владислав Пупков і Лариса Руснак

Фільм перекладено і озвучено на студії 1+1.
Аудіо # 2:
мова: англійська
переклад: оригінал
кодек: -HD 5.1
бітрейт: 2 109 кб/с

Аудіо # 3:
мова: англійська
переклад: оригінал
кодек: 5.1
бітрейт: 640 кб/с

Аудіо # 4:
мова: англійська
переклад: оригінал | Коментарі історика Стівена Дж. Рубіна
кодек: 2.0
бітрейт: 60 кб/с

Аудіо # 5:
мова: англійська
переклад: оригінал | Коментарі режисера Дж. Лі Томпсона
кодек: 2.0
бітрейт: 60 кб/с

Субтитри:
мова: англійська
тип: програмні (м'які)
формат: *.srt

Збережено оригінальні розділи, як на Blu-ray.
Info
General
Unique ID : 204741296493535578020706069915788199619 (0x9A07BD47CEE7D10E118CAB14ED3546C3)
Complete name : E:\Військовий, драма\The Guns of Navarone (1961) Remux 1080p UkrEng Sub Eng [Hurtom].
Format :
Format version : Version 4 / Version 2
File size : 29.3 GiB
Duration : 2 h 36 min
Overall bit rate mode : Variable
Overall bit rate : 26.8 Mb/s
Movie name : Гармати острова Наварон / The Guns of Navarone (1961) Remux 1080p Ukr/Eng | Sub Eng [Hurtom]
Encoded date : UTC 2019-05-17 06:12:00
Writing application : v25.0.0 ('Prog Noir') 64-bit
Writing library : libebml v1.3.6 + v1.4.9
Cover : Yes
Attachments : cover.jpg

Video
ID : 1
Format : AVC
Format/Info : Advanced Video Codec
Format profile : [email protected]
Format settings, CABAC : Yes
Format settings, RefFrames : 2 frames
Format settings, GOP : M=1, N=10
Codec ID : V_MPEG4/ISO/AVC
Duration : 2 h 36 min
Bit rate mode : Variable
Bit rate : 23.7 Mb/s
Width : 1 920 pixels
Height : 1 080 pixels
Display aspect ratio : 16:9
Frame rate mode : Constant
Frame rate : 23.976 (24000/1001) FPS
Color space : YUV
Chroma subsampling : 4:2:0
Bit depth : 8 bits
Scan type : Progressive
Bits/(Pixel*Frame) : 0.477
Stream size : 25.9 GiB (89%)
Title : The Guns of Navarone (1961) Remux 1080p Ukr/Eng | Sub Eng [Hurtom]
Default : Yes
Forced : No

Audio #1
ID : 2
Format : AC-3
Format/Info : Audio Coding 3
Format settings, Endianness : Big
Codec ID : A_AC3
Duration : 2 h 36 min
Bit rate mode : Constant
Bit rate : 192 kb/s
Channel(s) : 2 channels
Channel positions : Front: L R
Sampling rate : 48.0 kHz
Frame rate : 31.250 FPS (1536 SPF)
Bit depth : 16 bits
Compression mode : Lossy
Stream size : 215 MiB (1%)
Title : DVO [1+1] 2.0
Language : Ukrainian
Service kind : Complete Main
Default : Yes
Forced : Yes

Audio #2
ID : 3
Format :
Format/Info : Digital Theater Systems
Format profile : MA / Core
Mode : 16
Format settings, Endianness : Big
Codec ID : A_DTS
Duration : 2 h 36 min
Bit rate mode : Variable / Constant
Bit rate : 2 109 kb/s / 1 509 kb/s
Channel(s) : 6 channels
Channel positions : Front: L C R, Side: L R, LFE
Sampling rate : 48.0 kHz
Frame rate : 93.750 FPS (512 SPF)
Bit depth : 16 bits
Compression mode : Lossless / Lossy
Stream size : 2.30 GiB (8%)
Title : Original -HD MA 5.1
Language : English
Default : No
Forced : No

Audio #3
ID : 4
Format : AC-3
Format/Info : Audio Coding 3
Format settings, Endianness : Big
Codec ID : A_AC3
Duration : 2 h 36 min
Bit rate mode : Constant
Bit rate : 640 kb/s
Channel(s) : 6 channels
Channel positions : Front: L C R, Side: L R, LFE
Sampling rate : 48.0 kHz
Frame rate : 31.250 FPS (1536 SPF)
Bit depth : 16 bits
Compression mode : Lossy
Stream size : 716 MiB (2%)
Title : Original 5.1
Language : English
Service kind : Complete Main
Default : No
Forced : No

Audio #4
ID : 5
Format :
Format/Info : Advanced Audio Codec
Format profile : HE- / LC
Codec ID : A_AAC
Duration : 2 h 36 min
Bit rate : 60.8 kb/s
Channel(s) : 2 channels
Channel positions : Front: L R
Sampling rate : 48.0 kHz / 24.0 kHz
Frame rate : 23.438 FPS (1024 SPF)
Compression mode : Lossy
Stream size : 68.0 MiB (0%)
Title : Original | Commentary Film Historian Stephen J. Rubin
Language : English
Default : No
Forced : No

Audio #5
ID : 6
Format :
Format/Info : Advanced Audio Codec
Format profile : HE- / LC
Codec ID : A_AAC
Duration : 2 h 36 min
Bit rate : 60.7 kb/s
Channel(s) : 2 channels
Channel positions : Front: L R
Sampling rate : 48.0 kHz / 24.0 kHz
Frame rate : 23.438 FPS (1024 SPF)
Compression mode : Lossy
Stream size : 67.9 MiB (0%)
Title : Commentary Director J. Lee Thompson
Language : English
Default : No
Forced : No

Text
ID : 7
Format : UTF-8
Codec ID : S_TEXT/UTF8
Codec ID/Info : UTF-8 Plain Text
Duration : 2 h 34 min
Bit rate : 33 b/s
Count of elements : 1058
Stream size : 37.6 KiB (0%)
Title : Eng
Language : English
Default : No
Forced : No

Menu
00:00:00.000 : en:00:00:00.000
00:12:57.610 : en:00:12:57.610
00:17:57.076 : en:00:17:57.076
00:24:11.408 : en:00:24:11.408
00:32:43.920 : en:00:32:43.920
00:46:16.857 : en:00:46:16.857
00:59:17.262 : en:00:59:17.262
01:05:08.863 : en:01:05:08.863
01:13:27.653 : en:01:13:27.653
01:21:01.482 : en:01:21:01.482
01:29:46.464 : en:01:29:46.464
01:38:32.240 : en:01:38:32.240
01:51:56.126 : en:01:51:56.126
02:08:41.213 : en:02:08:41.213
02:17:32.995 : en:02:17:32.995
02:28:01.206 : en:02:28:01.206
Скріншоти
Джерело: &
Особиста оцінка: 10 - без зайвих вагань рекомендую всім!
Висловлюю подяку п. igor911 за попередній реліз. За український звук дякую: п.karvai0 -зведення та п.Tanat13 - наданий сирий звук.



Золотий реліз (завантажене не впливає на рейтинг)
 Трекер:    Зареєстрований   

Завантажити / скачати фільм українською



відео для новачків



 Зареєстрований:   2019-05-17 21:38
 Розмір:   29.26 GB 
 Оцінка фільму:   10/10 (Голосів: 10)
   
MakRA 
VIP


З нами з: 10.11.18
Востаннє: 18.11.19
Повідомлень: 519

2019-05-18 09:49  
Роздача продовжиться після 20.00.
MakRA 
VIP


З нами з: 10.11.18
Востаннє: 18.11.19
Повідомлень: 519

2019-05-20 20:45  
Другий фільм з цієї серії, тобто"Force 10 from Navarone" буде через 3-4 дні.
Ваш часовий пояс: GMT + 2 Години

Нова тема   Відповісти