Євробачення 2019. Півфінали. Фінал / Eurovision 2019. First, Second Semi-Final, Final (2019) 1080p 2хUkr

Нові коментарі

Нова тема   Відповісти
Автор Повідомлення
sergiyko.5 
VIP


З нами з: 25.02.16
Востаннє: 18.11.19
Повідомлень: 2749

2019-05-17 21:37  
Євробачення 2019. Півфінали. Фінал / Eurovision 2019. First, Second Semi-Final, Final (2019) 1080p 2хUkr

Євробачення 2019. Півфінали. Фінал / Eurovision 2019. First, Second Semi-Final, Final (2019) 1080p 2хUkr

Жанр: Пісенний конкурс
Країна: Ізраіль
Телеканал: UA Перший, СТБ
Коментатори: Тімур Мірошниченко, Сергій Притула

Опис:
У вівторок, 14 травня, о 22:00 за київським часом відбувся перший півфінал міжнародного пісенного конкурсу "Євробачення-2019"
Перший півфінал відкрила переможниця "Євробачення-2018" Netta. Вона заспівала нову версію тогорічного хіта "Toy", а також представила глядачам свою нову пісню. Загалом у першому півфіналі міжнародного пісенного конкурсу "Євробачення-2019" виступили 17 виконавців, але до фіналу конкурсу пройшли лише 10 із них.

У четвер, 16 травня, о 22:00 за київським часом відбувся другий півфінал міжнародного пісенного конкурсу "Євробачення-2019"
За вихід до фіналу міжнародного пісенного конкурсу "Євробачення-2019" у другому півфіналі змагалися 18 конкурсантів, проте за результатами голосування глядачів і виставлення оцінок від національних журі далі пройшли лише 10 виконавців.

У суботу, 18 травня, о 22:00 за київським часом відбувся фінал міжнародного пісенного конкурсу "Євробачення-2019"
Треклист:

Перший півфінал:
1 Кіпр: Tamta – Replay
2 Чорногорія: D mol – Heaven
3 Фінляндія: Darude feat. Sebastian Rejman – Look Away
4 Польща: Tulia – Fire of Love
5 Словенія: Zala Kralj & Gašper Šantl – Sebi
6 Чехія: Lake Malawi – Friend of a Friend
7 Угорщина: Joci Pápai – Az én apám
8 Білорусь: ZENA – Like it
9 Сербія: Nevena Božović – Kruna
10 Бельгія: Eliot – Wake up
11 Грузія: Oto Nemsadze – Sul tsin iare
12 Австралія: Kate Miller-Heidke – Zero Gravity
13 Ісландія: Hatari – Hatrið mun sigra
14 Естонія: Victor Crone – Storm
15 Португалія: Conan Osiris – Telemoveis
16 Греція: Katerine Duska – Better Love
17 Сан-Марино: Serhat – Say Na Na Na

Другий півфінал:
1 Вірменія: Srbuk — Walking Out
2 Ірландія: Sarah McTernan — 22
3 Молдова: Anna Odobescu — Stay
4 Швейцарія: Luca Hänni — She Got Me
5 Латвія: Carousel — That Night
6 Румунія: Ester Peony — On a Sunday
7 Данія: Leonora — Love Is Forever
8 Швеція: John Lundvik — Too Late For Love
9 Австрія: PÆNDA — Limits
10 Хорватія: Roko — The Dream
11 Мальта: Michela — Chameleon
12 Литва: Jurij Veklenko — Run With The Lions
13 росія: Sergey Lazarev — Scream
14 Албанія: Jonida Maliqi — Ktheju tokës
15 Норвегія: KEiiNO — Spirit in the Sky
16 Нідерланди: Duncan Laurence — Arcade
17 Північна Македонія: Tamara Todevska — Proud
18 Азербайджан: Chingiz — Truth

Фінал:
1. Мальта: Michela Pace – Сhameleon
2. Албанія: Jonida Maliqi – Ktheju Tokës
3. Чехія: Lake Malawi – Friend of a Friend
4. Німеччина: S!sters – Sister
5. росія: Сергій Лазарєв – Scream
6. Данія: Leonora – Love Is Forever
7. Сан-Марино: Serhat – Say Na Na Na
8. Північна Македонія: Tamara Todevska – Рroud
9. Швеція: John Lundvik – Too Late for Love
10. Словенія: Zala Kralj & Gašper Šantl – Sebi
11. Кіпр: Tamta – Replay
12. Нідерланди: Duncan Laurence – Arcade
13. Греція: Katerine Duska – Better Love
14. Ізраїль: Kobi Marimi – Home
15. Норвегія: KEiiNO – Spirit in the Sky
16. Великобританія: Michael Rice – Bigger Than Us
17. Ісландія: Hatari – Hatrið mun sigra
18. Естонія: Victor Crone – Storm
19. Білорусь: Zena – Like It
20. Азербайджан: Chingiz – Truth
21. Франція: Bilal Hassani – Roi
22. Італія: Mahmood – Soldi
23. Сербія: Nevena Božović – Kruna
24. Швейцарія: Luca Hänni – She Got Me
25. Австралія: Kate Miller-Heidke – Zero Gravity
26. Іспанія: Miki – La Venda
Тривалість: 02:13:07+02:15:15+04:11:20
Якість:

Відео: кодек: розмір кадру: 1920 х 1080 бітрейт: 3300 кб/с
Аудіо 1: мова: українська кодек: 2.0 бітрейт: 192 кб/с Тімур Мірошниченко
Аудіо 2: мова: українська кодек: 2.0 бітрейт: 192 кб/с Сергій Притула
Аудіо 3: мова: без коментарів кодек: 2.0 бітрейт: 128 кб/с
Про файл:
General
Unique ID : 149525919718343192684127124394588230973 (0x707DA50620D5F6229797B853FBE7D53D)
Complete name : G:\Torrents2\MUSIC\Eurovision Song Contest 2019 1080p \Eurovision Song Contest.2019.First Semi-Final.1080p..
Format :
Format version : Version 4
File size : 3.52 GiB
Duration : 2 h 13 min
Overall bit rate : 3 789 kb/s
Movie name : Eurovision Song Contest.2019.First Semi-Final.1080p. by sergiyko
Encoded date : UTC 2019-05-17 18:48:49
Writing application : v33.1.0 ('Primrose') 64-bit
Writing library : libebml v1.3.7 + v1.5.0

Video
ID : 1
Format : AVC
Format/Info : Advanced Video Codec
Format profile : [email protected]
Format settings : CABAC / 3 Ref Frames
Format settings, CABAC : Yes
Format settings, Reference : 3 frames
Codec ID : V_MPEG4/ISO/AVC
Duration : 2 h 13 min
Bit rate : 3 274 kb/s
Width : 1 920 pixels
Height : 1 080 pixels
Display aspect ratio : 16:9
Frame rate mode : Constant
Frame rate : 25.000 FPS
Color space : YUV
Chroma subsampling : 4:2:0
Bit depth : 8 bits
Scan type : Progressive
Bits/(Pixel*Frame) : 0.063
Stream size : 3.04 GiB (86%)
Title : First Semi-Final
Writing library : core 155 r2901 7d0ff22
Language : English
Default : Yes
Forced : No
Color range : Limited
Color primaries : BT.709
Transfer characteristics : BT.709
Matrix coefficients : BT.709

Audio #1
ID : 2
Format : AC-3
Format/Info : Audio Coding 3
Commercial name : Dolby Digital
Codec ID : A_AC3
Duration : 2 h 13 min
Bit rate mode : Constant
Bit rate : 192 kb/s
Channel(s) : 2 channels
Channel layout : L R
Sampling rate : 48.0 kHz
Frame rate : 31.250 FPS (1536 SPF)
Bit depth : 16 bits
Compression mode : Lossy
Stream size : 183 MiB (5%)
Title : Тімур Мірошниченко
Language : Ukrainian
Service kind : Complete Main
Default : Yes
Forced : Yes

Audio #2
ID : 3
Format : AC-3
Format/Info : Audio Coding 3
Commercial name : Dolby Digital
Codec ID : A_AC3
Duration : 2 h 13 min
Bit rate mode : Constant
Bit rate : 192 kb/s
Channel(s) : 2 channels
Channel layout : L R
Sampling rate : 48.0 kHz
Frame rate : 31.250 FPS (1536 SPF)
Bit depth : 16 bits
Compression mode : Lossy
Stream size : 183 MiB (5%)
Title : Сергій Притула
Language : Ukrainian
Service kind : Complete Main
Default : No
Forced : No

Audio #3
ID : 4
Format : LC
Format/Info : Advanced Audio Codec Low Complexity
Codec ID : A_AAC-2
Duration : 2 h 13 min
Bit rate : 128 kb/s
Channel(s) : 2 channels
Channel layout : L R
Sampling rate : 44.1 kHz
Frame rate : 43.066 FPS (1024 SPF)
Compression mode : Lossy
Delay relative to video : 12 ms
Stream size : 122 MiB (3%)
Title : No comments
Default : No
Forced : No
Скріншоти:



Автор зведення/ріпу: sergiyko


Бронзовий реліз (на рейтинг впливає 75% завантаженого)
 Трекер:    Зареєстрований   

Завантажити / скачати передачу українською



відео для новачків



 Зареєстрований:   2019-05-19 13:59
 Розмір:   15.81 GB 
 Оцінка передачі:   9.1/10 (Голосів: 10)
   
Vicarious 
Частий відвідувач


З нами з: 09.01.18
Востаннє: 23.08.19
Повідомлень: 33

2019-05-17 23:02  
раіса з маленької хДДД
Uta_only 
Частий відвідувач


З нами з: 19.05.17
Востаннє: 16.11.19
Повідомлень: 34

2019-05-18 03:59  
оо, дякую
Lianni 
Новенький


З нами з: 09.02.19
Востаннє: 27.10.19
Повідомлень: 1

2019-05-19 14:08  
дякую!
Aisakas 
Новенький


З нами з: 28.07.12
Востаннє: 10.11.19
Повідомлень: 1

2019-05-19 15:54  
Величезне дякую!!!
marinaV 
Новенький


З нами з: 09.07.11
Востаннє: 13.07.19
Повідомлень: 3

2019-05-19 19:12  
Дякую!
omm 
Відео Гуртом - фільмокрай
Відео Гуртом - фільмокрай


З нами з: 12.06.12
Востаннє: 18.11.19
Повідомлень: 2351

2019-05-20 23:21  
Норвегія:
47 балів від "професійного" журі і 15 місце
291 бал від телеглядачів і 1 місце.

Все, що треба знати про систему вибору переможця на цьому конкурсі

dimadiana 
Новенький


З нами з: 14.12.09
Востаннє: 18.11.19
Повідомлень: 24

2019-05-21 09:13  
Невимовно вдячний - дякую!
Ваш часовий пояс: GMT + 2 Години

Нова тема   Відповісти