Не кажи нікому / Tell No One / Ne le dis à personne (2006) 720p Ukr/Fre | Sub Eng/Fre

Нові коментарі

Нова тема   Відповісти
Автор Повідомлення
Anonymous 







2019-05-17 21:08  
Не кажи нікому / Tell No One / Ne le dis à personne (2006) 720p Ukr/Fre | Sub Eng/Fre

Не кажи нікому / Tell No One / Ne le dis à personne (2006) 720p Ukr/Fre | Sub Eng/Fre


Жанр: трилер, драма, кримінальний, детектив
Країна: Франція



Кінокомпанія: Les Productions du Tresor, EuropaCorp, M6 Films, Caneo Films
Режисер: Гійом Кане
Актори: Франсуа Клюзе, Марі-Жозе Кроз, Андре Дюссолье, Крістін Скотт Томас, Франсуа Берлеан, Наталі Бей, Жан Рошфор, Марина Хендс, Жиль Леллуш, Філіп Лефевр

Сюжет:
Вісім років тому Марго Бек загинула від рук серійного вбивці. Однак після піймання маніяк визнав за собою лише вісім вбивств - своє відношення до смерті Марго він всіляко заперечував. Але певні докази, знайдені на тілі жертви, дозволили звинуватити його і в убивстві Марго.

Чоловік убитої, Олександр Бек, до сих пір не може оговтатися після загибелі дружини. Він рятується від згубних думок, з головою занурившись в свою роботу, а дружба з Елен Перкінс не дає йому повністю втратити зв'язок зі світом. Але коли поруч з тим місцем, де було виявлено тіло Марго, знаходять ще два трупи і з'являються нові докази, поліція відновлює розслідування.

У той же час Олександр одержує по електронній пошті дивний лист, в якому міститься посилання на веб-камеру і вказано час, коли камера починає працювати ...
Оригінальний трейлер:


Вікова категорія: 16+

Тривалість: 02:10:57
Якість: 720p

Відео:
кодек:
розмір кадру: 1280x546
бітрейт: 4902 кб/с

Аудіо # 1:
мова: українська
переклад: багатоголосий закадровий
кодек: 2.0
бітрейт: 192 кб/с

Аудіо # 2:
мова: французька
переклад: оригінал
кодек: 5.1
бітрейт: 640 кб/с

Субтитри # 1:
мова: англійська
тип: програмні (м'які)
формат: *.srt

Субтитри # 2:
мова: французька
тип: програмні (м'які)
формат: *.srt

Збережено оригінальні розділи, як на Blu-ray
Info
Код:

Complete name               : Ne le dis à personne (Tell No One) (2006) [Ukr,Fre sub.Eng,Fre] 720p [Hurtom].
Format                      :
Format version              : Version 4
File size                   : 5.25 GiB
Duration                    : 2 h 10 min
Overall bit rate            : 5 736 kb/s
Movie name                  : Не кажи нікому / Tell No One / Ne le dis à personne (2006) [Ukr,Fre sub.Eng,Fre] 720p [Hurtom]
Encoded date                : UTC 2019-05-17 17:53:03
Writing application         : v33.1.0 ('Primrose') 64-bit
Writing library             : libebml v1.3.7 + v1.5.0
Cover                       : Yes
Attachments                 : cover.jpg

Video
ID                          : 1
Format                      : AVC
Format/Info                 : Advanced Video Codec
Format profile              : [email protected]
Format settings             : CABAC / 10 Ref Frames
Format settings, CABAC      : Yes
Format settings, Reference  : 10 frames
Codec ID                    : V_MPEG4/ISO/AVC
Duration                    : 2 h 10 min
Bit rate                    : 4 902 kb/s
Width                       : 1 280 pixels
Height                      : 546 pixels
Display aspect ratio        : 2.35:1
Frame rate mode             : Constant
Frame rate                  : 24.000 FPS
Color space                 : YUV
Chroma subsampling          : 4:2:0
Bit depth                   : 8 bits
Scan type                   : Progressive
Bits/(Pixel*Frame)          : 0.292
Stream size                 : 4.48 GiB (85%)
Title                       : Не кажи нікому / Tell No One / Ne le dis à personne (2006) 720p [HDCLUB]
Writing library             : core 104 r1713 c276662
Encoding settings           : cabac=1 / ref=10 / deblock=1:-3:-3 / analyse=0x3:0x133 / me=umh / subme=9 / psy=1 / psy_rd=1.00:0.00 / mixed_ref=1 / me_range=32 / chroma_me=1 / trellis=2 / 8x8dct=1 / cqm=0 / deadzone=21,11 / fast_pskip=0 / chroma_qp_offset=-2 / threads=12 / sliced_threads=0 / nr=0 / decimate=0 / interlaced=0 / constrained_intra=0 / bframes=10 / b_pyramid=2 / b_adapt=2 / b_bias=0 / direct=3 / weightb=1 / open_gop=0 / weightp=2 / keyint=250 / keyint_min=23 / scenecut=40 / intra_refresh=0 / rc_lookahead=60 / rc=2pass / mbtree=0 / bitrate=4902 / ratetol=1.0 / qcomp=0.60 / qpmin=10 / qpmax=51 / qpstep=4 / cplxblur=20.0 / qblur=0.5 / vbv_maxrate=50000 / vbv_bufsize=62500 / ip_ratio=1.40 / pb_ratio=1.30 / aq=1:0.80 / nal_hrd=none
Language                    : English
Default                     : Yes
Forced                      : No

Audio #1
ID                          : 2
Format                      : AC-3
Format/Info                 : Audio Coding 3
Commercial name             : Dolby Digital
Codec ID                    : A_AC3
Duration                    : 2 h 10 min
Bit rate mode               : Constant
Bit rate                    : 192 kb/s
Channel(s)                  : 2 channels
Channel layout              : L R
Sampling rate               : 48.0 kHz
Frame rate                  : 31.250 FPS (1536 SPF)
Bit depth                   : 16 bits
Compression mode            : Lossy
Stream size                 : 180 MiB (3%)
Title                       : MVO [TV5] 2.0 192 Kbps
Language                    : Ukrainian
Service kind                : Complete Main
Default                     : Yes
Forced                      : No

Audio #2
ID                          : 3
Format                      : AC-3
Format/Info                 : Audio Coding 3
Commercial name             : Dolby Digital
Codec ID                    : A_AC3
Duration                    : 2 h 10 min
Bit rate mode               : Constant
Bit rate                    : 640 kb/s
Channel(s)                  : 6 channels
Channel layout              : L R C LFE Ls Rs
Sampling rate               : 48.0 kHz
Frame rate                  : 31.250 FPS (1536 SPF)
Bit depth                   : 16 bits
Compression mode            : Lossy
Stream size                 : 599 MiB (11%)
Title                       : Original, 5.1 640 Kbps
Language                    : French
Service kind                : Complete Main
Default                     : No
Forced                      : No

Text #1
ID                          : 4
Format                      : UTF-8
Codec ID                    : S_TEXT/UTF8
Codec ID/Info               : UTF-8 Plain Text
Duration                    : 2 h 0 min
Bit rate                    : 34 b/s
Count of elements           : 1069
Stream size                 : 30.4 KiB (0%)
Title                       : Eng full
Language                    : English
Default                     : No
Forced                      : No

Text #2
ID                          : 5
Format                      : UTF-8
Codec ID                    : S_TEXT/UTF8
Codec ID/Info               : UTF-8 Plain Text
Duration                    : 2 h 0 min
Bit rate                    : 42 b/s
Count of elements           : 1027
Stream size                 : 37.6 KiB (0%)
Title                       : Fre full
Language                    : French
Default                     : No
Forced                      : No

Menu
00:00:00.000                : en:Chapter 1
00:07:43.375                : en:Chapter 2
00:19:09.416                : en:Chapter 3
00:25:28.958                : en:Chapter 4
00:33:48.875                : en:Chapter 5
00:41:51.666                : en:Chapter 6
00:52:27.083                : en:Chapter 7
01:03:36.833                : en:Chapter 8
01:09:23.875                : en:Chapter 9
01:15:13.041                : en:Chapter 10
01:23:49.000                : en:Chapter 11
01:32:44.916                : en:Chapter 12
01:40:39.458                : en:Chapter 13
01:48:02.875                : en:Chapter 14
01:58:14.875                : en:Chapter 15
02:01:58.083                : en:Chapter 16
Скріншоти:
Джерело: &
Подяка за українську доріжку автору реліза-першоджерела.


 Трекер:    Зареєстрований   

Завантажити / скачати фільм українською



відео для новачків



 Зареєстрований:   2019-05-17 21:47
 Розмір:   5.25 GB 
 Оцінка фільму:   10/10 (Голосів: 8)
   
Ваш часовий пояс: GMT + 2 Години

Нова тема   Відповісти