Австралія / Australia (2008) Remux 1080p Ukr/Eng | Sub Ukr/Eng

Нові коментарі

Нова тема   Відповісти
Автор Повідомлення
antik_2008 
Релізер і модератор відео


З нами з: 20.10.08
Востаннє: 19.05.19
Повідомлень: 1991

2019-05-17 16:11  
Австралія / Australia (2008) Remux 1080p Ukr/Eng | Sub Ukr/Eng

Австралія / Australia (2008) Remux 1080p Ukr/Eng | Sub Ukr/Eng


Жанр: військовий, драма, пригоди
Країна: США





Кінокомпанія: Twentieth Century Fox Film Corporation, Bazmark Films, ScreenWest
Режисер: Баз Лурмен (Baz Luhrmann)
Актори: Г'ю Джекмен (Hugh Jackman), Ніколь Кідмен (Nicole Kidman), Дейвід Венгем (David Wenham), Браян Браун (Bryan Brown), Бен Мендельсон (Ben Mendelsohn) та інші.

Сюжет:
У основі сюжету покладено історію англійської аристократки, яка одержала у спадок величезне ранчо на півночі австралійського материка. Перед початком Другої світової війни вона приїжджає в маєток для того, щоб оберегти його від спроб англійських скотарів захопити ранчо під назвою Faraway Downs у свою власність, і стикається з необхідністю за допомогою героя Джекмена перегнати 2000 голів худоби через тисячі миль в місто Дарвін. Там обоє потрапляють під масовані бомбардування з боку японських військово-повітряних сил.


Тривалість: 02:45:28
Якість: Remux
Відео:
кодек:
розмір кадру: 1920x1080
бітрейт: 19476 кб/с

Аудіо # 1:
мова: українська
переклад: професійний дубльований
кодек: 5.1
бітрейт: 448 кб/с

Аудіо # 2:
мова: англійська
переклад: оригінал
кодек: -HD 5.1
бітрейт: 3892 кб/с

Джерело озвучення:


Субтитри (Forced, Full):
мова: українська
тип: програмні (м'які)
формат: *.srt

Субтитри (Full):
мова: англійська
тип: програмні (м'які)
формат: *.srt
Info
Код:
General
Unique ID                                : 290802443312992270038310471949108564060 (0xDAC6836AC2060D742B96E6CEC4EED05C)
Complete name                            : D:\Films\Australia (2008) Remux 1080p [UKR_ENG] [ViDeO_Hurtom].
Format                                   :
Format version                           : Version 4
File size                                : 26.5 GiB
Duration                                 : 2 h 45 min
Overall bit rate mode                    : Variable
Overall bit rate                         : 22.9 Mb/s
Movie name                               : Australia (2008) Remux 1080p [UKR_ENG] [ViDeO_Hurtom]
Encoded date                             : UTC 2019-05-17 12:26:40
Writing application                      : v30.1.0 ('Forever And More') 64-bit
Writing library                          : libebml v1.3.6 + v1.4.9

Video
ID                                       : 1
Format                                   : AVC
Format/Info                              : Advanced Video Codec
Format profile                           : [email protected]
Format settings                          : CABAC / 4 Ref Frames
Format settings, CABAC                   : Yes
Format settings, RefFrames               : 4 frames
Format settings, GOP                     : M=3, N=12
Codec ID                                 : V_MPEG4/ISO/AVC
Duration                                 : 2 h 45 min
Bit rate mode                            : Variable
Bit rate                                 : 19.4 Mb/s
Maximum bit rate                         : 36.5 Mb/s
Width                                    : 1 920 pixels
Height                                   : 1 080 pixels
Display aspect ratio                     : 16:9
Frame rate mode                          : Constant
Frame rate                               : 23.976 (24000/1001) FPS
Color space                              : YUV
Chroma subsampling                       : 4:2:0
Bit depth                                : 8 bits
Scan type                                : Progressive
Bits/(Pixel*Frame)                       : 0.391
Stream size                              : 22.5 GiB (85%)
Default                                  : Yes
Forced                                   : No
Color range                              : Limited
Color primaries                          : BT.709
Transfer characteristics                 : BT.709
Matrix coefficients                      : BT.709

Audio #1
ID                                       : 2
Format                                   : AC-3
Format/Info                              : Audio Coding 3
Commercial name                          : Dolby Digital
Codec ID                                 : A_AC3
Duration                                 : 2 h 45 min
Bit rate mode                            : Constant
Bit rate                                 : 448 kb/s
Channel(s)                               : 6 channels
Channel layout                           : L R C LFE Ls Rs
Sampling rate                            : 48.0 kHz
Frame rate                               : 31.250 FPS (1536 SPF)
Bit depth                                : 16 bits
Compression mode                         : Lossy
Stream size                              : 530 MiB (2%)
Title                                    : , 6 ch, 448 Кбт/с -
Language                                 : Ukrainian
Service kind                             : Complete Main
Default                                  : Yes
Forced                                   : No

Audio #2
ID                                       : 3
Format                                   : XBR
Format/Info                              : Digital Theater Systems
Commercial name                          : -HD High Resolution Audio
Codec ID                                 : A_DTS
Duration                                 : 2 h 45 min
Bit rate mode                            : Constant
Bit rate                                 : 3 018 kb/s
Channel(s)                               : 6 channels
Channel layout                           : C L R Ls Rs LFE
Sampling rate                            : 48.0 kHz
Frame rate                               : 93.750 FPS (512 SPF)
Bit depth                                : 24 bits
Compression mode                         : Lossy
Stream size                              : 3.49 GiB (13%)
Title                                    : -HD HR, 6 ch, 3892 Кбт/с
Language                                 : English
Default                                  : No
Forced                                   : No

Text #1
ID                                       : 4
Format                                   : UTF-8
Codec ID                                 : S_TEXT/UTF8
Codec ID/Info                            : UTF-8 Plain Text
Duration                                 : 1 h 56 min
Bit rate                                 : 0 b/s
Count of elements                        : 11
Stream size                              : 704 Bytes (0%)
Title                                    : Forced
Language                                 : Ukrainian
Default                                  : Yes
Forced                                   : No

Text #2
ID                                       : 5
Format                                   : UTF-8
Codec ID                                 : S_TEXT/UTF8
Codec ID/Info                            : UTF-8 Plain Text
Duration                                 : 2 h 38 min
Bit rate                                 : 75 b/s
Count of elements                        : 1646
Stream size                              : 87.6 KiB (0%)
Title                                    : Full
Language                                 : Ukrainian
Default                                  : No
Forced                                   : No

Text #3
ID                                       : 6
Format                                   : UTF-8
Codec ID                                 : S_TEXT/UTF8
Codec ID/Info                            : UTF-8 Plain Text
Duration                                 : 2 h 40 min
Bit rate                                 : 55 b/s
Count of elements                        : 1795
Stream size                              : 65.3 KiB (0%)
Title                                    : Full
Language                                 : English
Default                                  : No
Forced                                   : No

Menu
00:00:00.000                             : :Chapter 01
00:05:03.886                             : :Chapter 02
00:06:08.785                             : :Chapter 03
00:16:17.893                             : :Chapter 04
00:22:30.557                             : :Chapter 05
00:26:59.117                             : :Chapter 06
00:32:40.333                             : :Chapter 07
00:41:30.613                             : :Chapter 08
00:52:23.014                             : :Chapter 09
00:57:29.320                             : :Chapter 10
01:00:07.520                             : :Chapter 11
01:09:48.893                             : :Chapter 12
01:14:57.409                             : :Chapter 13
01:18:07.099                             : :Chapter 14
01:29:32.450                             : :Chapter 15
01:38:19.226                             : :Chapter 16
01:44:46.655                             : :Chapter 17
01:47:32.320                             : :Chapter 18
01:54:33.074                             : :Chapter 19
01:56:05.583                             : :Chapter 20
02:03:37.660                             : :Chapter 21
02:08:31.370                             : :Chapter 22
02:14:35.108                             : :Chapter 23
02:23:16.838                             : :Chapter 24
02:33:59.563                             : :Chapter 25
02:37:46.415                             : :Chapter 26
02:45:28.084                             : :Chapter 27
Скріншоти





Джерело:
Особиста оцінка: 8 - мені сподобалося


Золотий реліз (завантажене не впливає на рейтинг)
 Трекер:    Зареєстрований   

Завантажити / скачати фільм українською



відео для новачків



 Зареєстрований:   2019-05-17 16:11
 Розмір:   26.48 GB 
 Оцінка фільму:   8.2/10 (Голосів: 6)
   
Інші релізи
   Австралія / Australia (2008) 1080p Ukr/Eng | Sub Ukr/Eng staf777  9 / 0   11.31 GB   2019-05-17 19:21 
   Австралія / Australia (2008) AVC Ukr/Eng | Sub Ukr/Eng Sando7  12 / 0   3.35 GB   2019-05-03 10:28 
   Австралія / Australia (2008) patriot2305  5 / 0   2.18 GB   2013-05-23 23:04 
   Австралія / Australia (2008) 720p Ukr/Eng | Sub Ukr/Eng Hurtomivets'  4 / 0   8.46 GB   2011-11-26 12:11 
   Австралія / Australia (2008) Ukr/Eng | Sub Ukr/Eng DemsOFF  0 / 0   3.42 GB   2010-03-10 17:47 
Ваш часовий пояс: GMT + 2 Години

Нова тема   Відповісти