Щасливі разом / Happy Together (1997) Chi | sub Ukr

Нові коментарі

Нова тема   Відповісти
Останній раз роздавалося Сергійопал (2019-09-17)
Автор Повідомлення
YesNoMaybe 
Новенький


З нами з: 08.10.17
Востаннє: 28.06.19
Повідомлень: 8

2019-05-17 07:32  
Щасливі разом / Happy Together (1997) Chi | sub Ukr

Щасливі разом / Happy Together (1997) Chi | sub Ukr

Альтернативні постери



Жанр: романтична драма, ЛГБТ
Країна: Гонконг



Кінокомпанія: Block 2 Pictures, Jet Tone Production, Prénom H Co. Ltd., Seowoo Film Company
Режисер: Вонг Карвай
Актори: Леслі Чун, Тоні Люн Чу Вай, Чен Чан

Сюжет:
Ю-Фай та По-Вінг вирушають в Аргентину, щоб відновити свої стосунки й почати все заново, але натомість віддаляються одне від одного.


Тривалість: 01:36:07
Якість:
Відео:
кодек:
розмір кадру: 720 х 390
бітрейт: 1587 кб/с

Аудіо:
мова: китайська
переклад: оригінал
кодек: MP3
бітрейт: 192 кб/с

Субтитри:
мова: українська
тип: програмні (м'які)
формат: *.srt
Скріншоти
Info
Код:

General
Format                      : AVI
Format/Info                 : Audio Video Interleave
Format profile              : OpenDML
File size                   : 1.21 GiB
Duration                    : 1 h 36 min
Overall bit rate            : 1 795 kb/s
Writing application         : Lavf57.83.100

Video
ID                          : 0
Format                      : MPEG-4 Visual
Format profile              : [email protected]
Format settings, BVOP       : No
Format settings, QPel       : No
Format settings, GMC        : No warppoints
Format settings, Matrix     : Default (H.263)
Codec ID                    :
Codec ID/Hint               :
Duration                    : 1 h 36 min
Bit rate                    : 1 587 kb/s
Width                       : 720 pixels
Height                      : 390 pixels
Display aspect ratio        : 1.85:1
Frame rate                  : 23.976 (24000/1001) FPS
Color space                 : YUV
Chroma subsampling          : 4:2:0
Bit depth                   : 8 bits
Scan type                   : Progressive
Compression mode            : Lossy
Bits/(Pixel*Frame)          : 0.236
Stream size                 : 1.07 GiB (88%)
Writing library             : Lavc57.107.100

Audio
ID                          : 1
Format                      : MPEG Audio
Format version              : Version 1
Format profile              : Layer 3
Format settings             : Joint stereo / MS Stereo
Codec ID                    : 55
Codec ID/Hint               : MP3
Duration                    : 1 h 36 min
Bit rate mode               : Constant
Bit rate                    : 192 kb/s
Channel(s)                  : 2 channels
Sampling rate               : 48.0 kHz
Compression mode            : Lossy
Stream size                 : 132 MiB (11%)
Alignment                   : Aligned on interleaves
Interleave, duration        : 24  ms (0.58 video frame)
Interleave, preload duratio : 24  ms
Writing library             : LAME3.99.5
Локалізація постерів та переклад: screenmy
Особиста оцінка: 9


Золотий реліз (завантажене не впливає на рейтинг)
 Трекер:    Зареєстрований   

Завантажити / скачати фільм українською



відео для новачків



 Зареєстрований:   2019-05-17 07:32
 Розмір:   1.21 GB 
 Оцінка фільму:   5/10 (Голосів: 11)
   
Інші релізи
   Щасливі разом / Happy Together (1997) Ukr | sub Ukr Done56  1 / 0   1.2 GB   2019-06-27 20:09 
[email protected] 
Новенький


З нами з: 16.09.18
Востаннє: 14.09.19
Повідомлень: 11

2019-05-18 11:55  
ЗАБЕРІТЬ ЦЮ ХХХХХХХНЮ ТУТ ДІТИ НА ТОЛОЦІ МУЛЬТИКИ ДИВЛЯТЬСЯ. НЕЗАВАЖАЙТЕ ЇМ РОСТИ!!!!!!! ЦЕ БЕЗПЕКА НАЦІЇ
Odyssey2001 
Новенький


З нами з: 25.12.16
Востаннє: 19.09.19
Повідомлень: 7

2019-06-16 21:40  
[email protected]
небезпека нації, це такі як ви

reiser44 
Свій


З нами з: 12.11.14
Востаннє: 03.09.19
Повідомлень: 104

2019-06-28 10:03  
Приберіть це лайно! Толока вже остаточно перетворюється на сміттярку. (
Odyssey2001 
Новенький


З нами з: 25.12.16
Востаннє: 19.09.19
Повідомлень: 7

2019-08-12 17:04  
Неймовірно гарний фільм, дякую за роздачу
Ваш часовий пояс: GMT + 2 Години

Нова тема   Відповісти