Арабеска / Arabesque (1966) Remux 1080p Ukr/Eng | Sub Eng

Нові коментарі

Нова тема   Відповісти
Автор Повідомлення
MakRA 
Поважний учасник


З нами з: 11.11.18
Востаннє: 19.05.19
Повідомлень: 192

2019-05-17 01:43  
Арабеска / Arabesque (1966) Remux 1080p Ukr/Eng | Sub Eng

Арабеска / Arabesque (1966) Remux 1080p Ukr/Eng | Sub Eng

Альтернативні обкладинки:




Жанр: детектив, кримінальний, пригодницький, трилер
Країна: США



Кінокомпанія: Universal Pictures, Stanley Donen Films
Режисер: Стенлі Донен [Stanley Donen]
Актори: Грегорі Пек [Gregory Peck], Софі Лорен [Sophia Loren], Алан Бадел [Alan Badel], Кірон Мур [Kieron Moore], Карл Дюринґ [Carl Duering], Джон Мерівейл [John Merivale], Дункан Ламонт [Duncan Lamont], Джордж Кулуріс [George Coulouris], Ернест Кларк [Ernest Clark], Гарольд Каскет [Harold Kasket].

Сюжет:
Американський професор університету, дослідник стародавніх єгипетських ієрогліфів Давид Поллок виявляється втягнутим у павутину міжнародних інтриг. Усім необхідно знати, що зашифровано в єгипетському тексті, тому вони переслідують професора. Несподівано з'являється допомога в особі прекрасної Ясмін Азір. Та чи дійсно у цьому світі брехні можна на когось розраховувати?

Цікаве про фільм:

-Жоден із акторів у фільмі не є арабом.
-Лімузин британського виробництва Ролс Ройс «Фантом IV» був одним з вісімнадцяти зроблених автомобілів такого типу. Він колись належав князеві Генрі, герцогові Глостерському, третьому синові короля Великої Британії Георга V, дя́дькові Єлизавети II.


Нагороди:

1967 Премія БАФТА, Британської академії телебачення та кіномистецтва:
за найкращу операторську роботу[en] — Крістофер Чаліс
1967 Премія «Бамбі» ЗМІ і телебачення Німеччини (Hubert Burda Media):
найкращій акторці — Софія Лорен



Тривалість: 01:45:24
Якість:
Відео:
кодек:
розмір кадру: 1920 х 1080
бітрейт: 22,9 Мб/с

Аудіо # 1:
мова: українська
переклад: багатоголосий закадровий | студія "З ранку до ночі"
кодек: 2.0
бітрейт: 192 кб/с
Про озвучення:
Ролі озвучили:Грегорі Пек - Олександр Задніпровський, Владислав Пупков і ще один чоловічий, ну і жіночий.
Аудіо # 2:
мова: англійська
переклад: оригінал
кодек: 2.0
бітрейт: 192 кб/с

Субтитри:
мова: англійська
тип: пререндерні
формат: *.pgs
Info
General
Unique ID : 310256902156590478870417749131936271081 (0xE9694E4AFB25490D36A1E223C0E20AE9)
Complete name : E:\+Режисер Стенлі Донен\Arabesque (1966) Remux 1080p UkrEng Sub Eng [Hurtom].
Format :
Format version : Version 4 / Version 2
File size : 17.2 GiB
Duration : 1 h 45 min
Overall bit rate mode : Variable
Overall bit rate : 23.3 Mb/s
Movie name : Арабеска / Arabesque (1966) Remux 1080p Ukr/Eng | Sub Eng [Hurtom]
Encoded date : UTC 2019-05-16 19:32:11
Writing application : v25.0.0 ('Prog Noir') 64-bit
Writing library : libebml v1.3.6 + v1.4.9

Video
ID : 1
Format : AVC
Format/Info : Advanced Video Codec
Format profile : [email protected]
Format settings, CABAC : Yes
Format settings, RefFrames : 3 frames
Codec ID : V_MPEG4/ISO/AVC
Duration : 1 h 45 min
Bit rate mode : Variable
Bit rate : 22.9 Mb/s
Maximum bit rate : 30.0 Mb/s
Width : 1 920 pixels
Height : 1 080 pixels
Display aspect ratio : 16:9
Frame rate mode : Constant
Frame rate : 23.976 (24000/1001) FPS
Standard : NTSC
Color space : YUV
Chroma subsampling : 4:2:0
Bit depth : 8 bits
Scan type : Progressive
Bits/(Pixel*Frame) : 0.461
Stream size : 16.9 GiB (98%)
Title : Arabesque (1966) Remux 1080p Ukr/Eng | Sub Eng [Hurtom]
Language : Ukrainian
Default : Yes
Forced : Yes
Color range : Limited
Color primaries : BT.709
Transfer characteristics : BT.709
Matrix coefficients : BT.709

Audio #1
ID : 2
Format : AC-3
Format/Info : Audio Coding 3
Format settings, Endianness : Big
Codec ID : A_AC3
Duration : 1 h 45 min
Bit rate mode : Constant
Bit rate : 192 kb/s
Channel(s) : 2 channels
Channel positions : Front: L R
Sampling rate : 48.0 kHz
Frame rate : 31.250 FPS (1536 SPF)
Bit depth : 16 bits
Compression mode : Lossy
Stream size : 145 MiB (1%)
Title : MVO [ICTV] | студія "З ранку до ночі"
Language : Ukrainian
Service kind : Complete Main
Default : Yes
Forced : Yes

Audio #2
ID : 3
Format : AC-3
Format/Info : Audio Coding 3
Format settings, Endianness : Big
Codec ID : A_AC3
Duration : 1 h 45 min
Bit rate mode : Constant
Bit rate : 192 kb/s
Channel(s) : 2 channels
Channel positions : Front: L R
Sampling rate : 48.0 kHz
Frame rate : 31.250 FPS (1536 SPF)
Bit depth : 16 bits
Compression mode : Lossy
Stream size : 145 MiB (1%)
Title : Original 2.0
Language : English
Service kind : Complete Main
Default : No
Forced : No

Text
ID : 4
Format : PGS
Muxing mode : zlib
Codec ID : S_HDMV/PGS
Codec ID/Info : Picture based subtitle format used on BDs/HD-DVDs
Duration : 1 h 42 min
Bit rate : 47.4 kb/s
Count of elements : 2214
Stream size : 34.8 MiB (0%)
Title : Eng
Language : English
Default : No
Forced : No
Скріншоти
Джерело: &
Особиста оцінка: 10 - без зайвих вагань рекомендую всім!
Подяка п. Merdiff'у за наданий запис звуку і п. rooster за зведення.



Золотий реліз (завантажене не впливає на рейтинг)
 Трекер:    Зареєстрований   

Завантажити / скачати фільм українською



відео для новачків



 Зареєстрований:   2019-05-17 01:43
 Розмір:   17.19 GB 
 Оцінка фільму:   10/10 (Голосів: 5)
   
Інші релізи
   Арабеска / Arabesque (1966) sokeel  1 / 0   748 MB   2017-01-23 18:42 
   Арабеска / Arabesque (1966) Ukr/Eng rooster  5 / 0   1.46 GB   2011-12-14 11:14 
Ваш часовий пояс: GMT + 2 Години

Нова тема   Відповісти