Вітер / The Wind (2018) 1080p Eng | sub Ukr

Нові коментарі

Нова тема   Відповісти
Автор Повідомлення
Chupacabr007 
Свій


З нами з: 07.07.15
Востаннє: 01.12.20
Повідомлень: 94

2019-05-16 11:52  
Вітер / The Wind (2018) 1080p Eng | sub Ukr

Вітер / The Wind (2018) 1080p Eng | sub Ukr


Жанр: жахи, вестерн
Країна: США



Кінокомпанія: Soapbox Films, Divide/Conquer, Mind Hive Films
Режисер: Емма Таммі
Актори: Майлз Андерсон, Кейтлін Джерард, Джулія Голден Телленс, Ділан МакТі

Сюжет:
Дикий Захід, кінець XIX століття. Десь в безкрайніх преріях живе молода пара. Чоловік часто відлучається на заробітки в місто і залишає Ліззі саму, тому вона дуже зраділа, коли поруч оселилася ще одна сімейна пара. Тепер жінці є з ким поговорити і провести час. Але завагітнівши, нова подруга починає дивно поводитися і стверджувати, що десь поблизу бродить щось потойбічне.


Тривалість: 01:27:58
Якість: 1080p
Відео:
кодек:
розмір кадру: 1920 х 800
бітрейт: 5126 кб/с

Аудіо:
мова: англійська
переклад: оригінал
кодек: E- 5.1
бітрейт: 640 кб/с

Субтитри:
мова: українська
тип: програмні (м'які)
формат: *.srt
переклад: [SubAutumn]
Скріншоти





Info
General
Complete name : D:\SubAutumn\Films\The Wind\The Wind (2018) [Eng Sub.Ukr] 1080p [Hurtom].
Format :
Format version : Version 4 / Version 2
File size : 3.61 GiB
Duration : 1h 27mn
Overall bit rate : 5 883 Kbps
Movie name : The Wind (2018) [Eng Sub.Ukr] 1080p [Hurtom]
Encoded date : UTC 2019-05-16 08:58:23
Writing application : v6.5.0 ('Isn't she lovely') built on Oct 20 2013 12:50:05
Writing library : libebml v1.3.0 + v1.4.1

Video
ID : 1
Format : AVC
Format/Info : Advanced Video Codec
Format profile : [email protected]
Format settings, CABAC : Yes
Format settings, ReFrames : 4 frames
Codec ID : V_MPEG4/ISO/AVC
Duration : 1h 27mn
Bit rate mode : Constant
Bit rate : 5 126 Kbps
Nominal bit rate : 10 000 Kbps
Width : 1 920 pixels
Height : 800 pixels
Display aspect ratio : 2.40:1
Frame rate mode : Constant
Frame rate : 24.000 fps
Color space : YUV
Chroma subsampling : 4:2:0
Bit depth : 8 bits
Scan type : Progressive
Bits/(Pixel*Frame) : 0.139
Stream size : 3.15 GiB (87%)
Language : English
Default : Yes
Forced : No
Color range : Limited
Color primaries : BT.709
Transfer characteristics : BT.709
Matrix coefficients : BT.709

Audio
ID : 2
Format : E-AC-3
Format/Info : Audio Coding 3
Format settings, Endianness : Big
Codec ID : A_EAC3
Duration : 1h 27mn
Bit rate mode : Constant
Bit rate : 640 Kbps
Channel(s) : 6 channels
Channel positions : Front: L C R, Side: L R, LFE
Sampling rate : 48.0 KHz
Compression mode : Lossy
Stream size : 403 MiB (11%)
Title : The Wind (2018) [Eng Sub.Ukr] 1080p [Hurtom]
Language : English
Default : No
Forced : No

Text
ID : 3
Format : UTF-8
Codec ID : S_TEXT/UTF8
Codec ID/Info : UTF-8 Plain Text
Title : The Wind (2018) [Eng Sub.Ukr] 1080p [Hurtom]
Language : Ukrainian
Default : Yes
Forced : No
Джерело:


Золотий реліз (завантажене не впливає на рейтинг)
 Трекер:    Зареєстрований   

Завантажити / скачати фільм українською



відео для новачків



 Зареєстрований:   2019-05-16 11:52
 Розмір:   3.61 GB 
 Оцінка фільму:   8.4/10 (Голосів: 5)
   
Інші релізи
murrrchik 
Свій


З нами з: 22.07.10
Востаннє: 01.12.20
Повідомлень: 70

2019-05-16 14:06  
Непоганий фільм, не знав, що його перекладуть українською, тому дивився російською. Не шедевр і не еталон жахів, але атмосфера передана досить добре, пару цікавих моментів є, можна один разок подивитися.
krabapka 
Свій


З нами з: 15.08.15
Востаннє: 01.12.20
Повідомлень: 101

2019-12-21 20:33  
Дивилася фоном під роботу, дуже заплутує постійне переключення між минулим і теперішнім. Починалося цікаво, далі таке собі, могли б і краще. Багато різких моментів, виділених значним підвищенням звуку, не люблю таке.
Ваш часовий пояс: GMT + 2 Години

Нова тема   Відповісти